Торренты   
 
 

 

G.I. Joe: Бросок кобры 2 в 3Д / G.I. Joe: Retaliation 3D (Джон М. Чу) [2013, фантастика, боевик, триллер, приключения, BDrip, 1080p]Full OverUnder / Вертикальная стереопара

Рейтинг 3D:
229 голосов
7.3
Рейтинг фильма:
229 голосов
6.8
 
Вы должны быть авторизированы,
чтобы ставить оценки


G.I. Jое: Бpocoк кoбpы 2 / G.I. Jое: Rеtаliаtiоn
Год выпуска: 2013
Страна: США
Жанр: фантастика, боевик, триллер, приключения
Продолжительность: 01:50:14
Перевод: Профессиональный (дублированный)
Русские субтитры: нет
Режиссер на русском: Джон М. Чу
В ролях: Дуэйн Джонсон, Эдрианн Палики, Брюс Уиллис, Рэй Парк, Ли Бён Хон, Д.Дж. Котрона, Джонатан Прайс, Элоди Юнг, Ченнинг Татум, Люк Брейси
Роли озвучивали: Юрий Деркач , Ирина Киреева , Владимир Герасимов , Александр Гаврилин , Дмитрий Поляновский...
Описание: Во второй части отряд «G.I. Joe» вновь объявит вызов группировке «Кобра» и вступит в противостояние с правительством.
Качество: BDrip
Контейнер: MKV
Формат 3D: OverUnder / Вертикальная стереопара
Порядок ракурсов: левый ракурс первый
Видео кодек: x264
Аудио кодек: AC3
Видео: AVC / High@L5.0 / 23,976 fps / 1920х1600 / 32,1 Мбит/сек
Аудио: Русский / AC3 / 48 KHz / 5.1 ch / 640 Kbps
Аудио 2: Английский / AC3 / 48 KHz / 5.1 ch / 640 Kbps
Релиз группы: ВНИМАНИЕ ! На встроенных ТВ-плеерах работать не будет!!!
Железные плееры на которых воспроизводятся полные стереопары:Popcorn C-200 , Dune HD Smart D1 , Dune HD DUO , Dune HD Smart H1 , Dune HD Smart B1 , Dune HD Max , Dune HD TV-303D , Dune HD Base 3D

MediaInfo

Общее
Уникальный идентификатор : 206763143655529968719598793072055957371 (0x9B8D220ABA22EFF28C4C5C4C59B8377B)
Полное имя : E:\закачки\G.I. Joe Retaliation.Rip by SeRoGa00.mkv
Формат : Matroska
Версия формата : Version 2
Размер файла : 26,2 Гбайт
Продолжительность : 1 ч. 50 м.
Общий поток : 34,0 Мбит/сек
Дата кодирования : UTC 2013-07-20 07:52:36
Программа кодирования : mkvmerge v3.4.0 ('Rapunzel') сборка от May 15 2010 09:38:20
Библиотека кодирования : libebml v0.8.0 + libmatroska v0.9.0
Видео
Идентификатор : 1
Формат : AVC
Формат/Информация : Advanced Video Codec
Профиль формата : High@L5.0
Параметр CABAC формата : Да
Параметр ReFrames формата : 4 кадра
Идентификатор кодека : V_MPEG4/ISO/AVC
Продолжительность : 1 ч. 50 м.
Битрейт : 32,1 Мбит/сек
Ширина : 1920 пикселей
Высота : 1600 пикселей
Соотношение сторон : 1,200
Частота кадров : 23,976 кадра/сек
Цветовое пространство : YUV
Субдискретизация насыщенности : 4:2:0
Битовая глубина : 8 бит
Тип развёртки : Прогрессивная
Бит/(Пиксели*Кадры) : 0.435
Размер потока : 24,7 Гбайт (94%)
Заголовок : Rip by SeRoGa00
Библиотека кодирования : x264 core 128 r2216kMod 198a7ea
Настройки программы : cabac=1 / ref=4 / deblock=1:-3:-3 / analyse=0x3:0x113 / me=umh / subme=9 / psy=1 / fade_compensate=0.00 / psy_rd=1.00:0.15 / mixed_ref=1 / me_range=16 / chroma_me=1 / trellis=2 / 8x8dct=1 / cqm=0 / deadzone=21,11 / fast_pskip=1 / chroma_qp_offset=-3 / threads=9 / lookahead_threads=1 / sliced_threads=0 / nr=0 / decimate=1 / interlaced=0 / bluray_compat=0 / constrained_intra=0 / bframes=6 / b_pyramid=2 / b_adapt=2 / b_bias=0 / direct=3 / weightb=1 / open_gop=0 / weightp=2 / keyint=250 / keyint_min=23 / scenecut=40 / intra_refresh=0 / rc_lookahead=60 / rc=crf / mbtree=1 / crf=18.0000 / qcomp=0.60 / qpmin=10 / qpmax=69 / qpstep=4 / vbv_maxrate=40000 / vbv_bufsize=40000 / crf_max=0.0 / nal_hrd=none / ip_ratio=1.40 / aq=1:1.00
Язык : English
Аудио #1
Идентификатор : 2
Формат : AC-3
Формат/Информация : Audio Coding 3
Расширение режима : CM (complete main)
Идентификатор кодека : A_AC3
Продолжительность : 1 ч. 50 м.
Вид битрейта : Постоянный
Битрейт : 640 Кбит/сек
Каналы : 6 каналов
Расположение каналов : Front: L C R, Side: L R, LFE
Частота : 48,0 КГц
Битовая глубина : 16 бит
Метод сжатия : С потерями
Размер потока : 505 Мбайт (2%)
Язык : Russian
Аудио #2
Идентификатор : 3
Формат : AC-3
Формат/Информация : Audio Coding 3
Расширение режима : CM (complete main)
Идентификатор кодека : A_AC3
Продолжительность : 1 ч. 50 м.
Вид битрейта : Постоянный
Битрейт : 640 Кбит/сек
Каналы : 6 каналов
Расположение каналов : Front: L C R, Side: L R, LFE
Частота : 48,0 КГц
Битовая глубина : 16 бит
Метод сжатия : С потерями
Размер потока : 505 Мбайт (2%)
Язык : English

Скриншоты


Остальные раздачи этого фильма (4)
Благодарности релизеру (8)

Торрент:

Статус:

Размер:

Зарегистрирован   [ 2013-07-20 23:28 ]

проверено

26.23 GB

 
 Мнение о фильме (77)

1, 2, 3, 4  След.






До конца досмотреть не хватило сил...Бре-е-е-ед!!!!
 

3 д норма!Фильм для любителей фаетастичесуих боевиков!!!Удачного просмоотра!:)
 

Даже несмотря на то, что 3d - конверсия !
 

Фильм намного хуже первой части - почти заурядный боевик, испортили франшизу. 3D есть, даже очень заметное, и вылеты есть немного - но все как-то не очень естественное, особенно бросаются в глаза нарочито выдвинутые объекты переднего плана. Сравните качество конвертации этого фильма и "Парка Юрского периода" - мне кажется, разница заметна.
 

это не конверт! но лучше подождать от другого релизера
 

Это - конвертация. Если кому-то интересно, вот ссыла: хттп://realorfake3d.com/
 

конверт?
 

Да, это студийная конвертация!
 

Ну а что Вы хотели, фильм то снимали в обычном формате.... потом уже доделали до 3D
 

Наивная стрелялка и спасение мира в последнюю секунду - ничего нового. 3D более -менее на переднем плане , задний план размазан. Качество картинки из -за зернистости убогое. Неужели такое качество и в кино-рах за деньги крутят или это копия неудачная.
 

цыигвиив, такой исходник, другого нет...
 

Смотрел в кинотеатре. Добротный фантастический боевичек, хуже первой части, но вполне на уровне.
 

Разочарован, могло быть значительно лучше!!!
 

Барахло
 

Смотрел через проектор на 5 м экране без полос. 3Д тут нормальное, присутствуют всеми любимые вылеты. Заметно что конверт, но все же неплохо
 

норм кинчик. но на раз.
 
Вячеслав Старчевский Профиль 23-Июл-2013 20:33

Первая часть была ещё куда не шло.... Тут же бред полный. Досмотрел от нечего делать.
 

Раз 5 наверное начинал смотреть и бросал. Но все же досмотрел. По сравнению с первой частью - полная фигня. Не вытятнули фильм не молодой лысый не старый лысый.
 

Фильм на раз, 3д сносное.
 

Спасибо большое за фильм!!!
 

Страница 1 из 4

1, 2, 3, 4  След.