Торренты   
 
 

 

G.I. Jое: Бpocoк кoбpы 2 / G.I. Jое: Rеtаliаtiоn (Джон М. Чу) [2013 г.,BDRip, Crop Anamorph OverUnder]

Рейтинг 3D:
229 голосов
7.3
Рейтинг фильма:
229 голосов
6.8
 
Вы должны быть авторизированы,
чтобы ставить оценки


G.I. Jое: Бpocoк кoбpы 2 / G.I. Jое: Rеtаliаtiоn
Год выпуска: 2013
Страна: США
Жанр: фантастика, боевик, триллер, приключения
Продолжительность: 01:50:14
Перевод: Профессиональный (полное дублирование)
Режиссер: Джон М. Чу
В ролях: Дуэйн Джонсон, Эдрианн Палики, Брюс Уиллис, Рэй Парк, Ли Бён Хон, Д.Дж. Котрона, Джонатан Прайс, Элоди Юнг, Ченнинг Татум, Люк Брейси
Описание: Во второй части отряд «G.I. Joe» вновь объявит вызов группировке «Кобра» и вступит в противостояние с правительством.
Внимание: Справа и слева у видеоряда обрезано по 248р, что дает возможность просмотра на полный экран (без черных полос) на телевизорах с соотношением сторон 16:9 без изменения пропорций.
Более подробная информация
Релиз группы:
Формат 3D: OverUnder BDRip, Crop Anamorph
Видео: AVC, High@L4.0, 1920х1080, 23,976 кадра/сек, 26,3 Мбит/сек
Аудио: Rus, AC-3, 6 каналов, 640 Кбит/сек, 48,0 КГц
Аудио: Eng, AC-3, 6 каналов, 640 Кбит/сек, 48,0 КГц

Скриншоты




Media Info

Общее
Уникальный идентификатор : 214870798055922778317450510782914344915 (0xA1A69C4428C81CA18BD679739A2BB7D3)
Полное имя : E:\STEREO CROP\G.I.Jое_Rеtаliаtiоn_(CROP)_Rip by Dag13.mkv
Формат : Matroska
Версия формата : Version 2
Размер файла : 21,7 Гбайт
Продолжительность : 1 ч. 50 м.
Общий поток : 28,1 Мбит/сек
Дата кодирования : UTC 2013-07-24 17:29:52
Программа кодирования : mkvmerge v3.4.0 ('Rapunzel') сборка от May 15 2010 09:38:20
Библиотека кодирования : libebml v0.8.0 + libmatroska v0.9.0
Видео
Идентификатор : 1
Формат : AVC
Формат/Информация : Advanced Video Codec
Профиль формата : High@L4.0
Параметр CABAC формата : Да
Параметр ReFrames формата : 4 кадра
Идентификатор кодека : V_MPEG4/ISO/AVC
Продолжительность : 1 ч. 50 м.
Битрейт : 26,3 Мбит/сек
Ширина : 1920 пикселей
Высота : 1080 пикселей
Соотношение сторон : 16:9
Частота кадров : 23,976 кадра/сек
Цветовое пространство : YUV
Субдискретизация насыщенности : 4:2:0
Битовая глубина : 8 бит
Тип развёртки : Прогрессивная
Бит/(Пиксели*Кадры) : 0.528
Размер потока : 20,3 Гбайт (93%)
Заголовок : Rip by Dag13
Библиотека кодирования : x264 core 120 r2145 748fe16
Настройки программы : cabac=1 / ref=4 / deblock=1:-3:-3 / analyse=0x3:0x113 / me=umh / subme=9 / psy=1 / psy_rd=1.00:0.00 / mixed_ref=1 / me_range=16 / chroma_me=1 / trellis=2 / 8x8dct=1 / cqm=0 / deadzone=21,11 / fast_pskip=1 / chroma_qp_offset=-2 / threads=9 / sliced_threads=0 / nr=0 / decimate=1 / interlaced=0 / bluray_compat=0 / constrained_intra=0 / bframes=6 / b_pyramid=2 / b_adapt=2 / b_bias=0 / direct=3 / weightb=1 / open_gop=0 / weightp=2 / keyint=250 / keyint_min=23 / scenecut=40 / intra_refresh=0 / rc_lookahead=60 / rc=crf / mbtree=1 / crf=17.0 / qcomp=0.60 / qpmin=1 / qpmax=69 / qpstep=4 / ip_ratio=1.40 / aq=1:1.00
Язык : English
Default : Нет
Forced : Нет
Аудио #1
Идентификатор : 2
Формат : AC-3
Формат/Информация : Audio Coding 3
Расширение режима : CM (complete main)
Идентификатор кодека : A_AC3
Продолжительность : 1 ч. 50 м.
Вид битрейта : Постоянный
Битрейт : 640 Кбит/сек
Каналы : 6 каналов
Расположение каналов : Front: L C R, Side: L R, LFE
Частота : 48,0 КГц
Битовая глубина : 16 бит
Метод сжатия : С потерями
Размер потока : 505 Мбайт (2%)
Язык : Russian
Default : Да
Forced : Нет
Аудио #2
Идентификатор : 3
Формат : AC-3
Формат/Информация : Audio Coding 3
Расширение режима : CM (complete main)
Идентификатор кодека : A_AC3
Продолжительность : 1 ч. 50 м.
Вид битрейта : Постоянный
Битрейт : 640 Кбит/сек
Каналы : 6 каналов
Расположение каналов : Front: L C R, Side: L R, LFE
Частота : 48,0 КГц
Битовая глубина : 16 бит
Метод сжатия : С потерями
Размер потока : 505 Мбайт (2%)
Язык : English
Default : Нет
Forced : Нет
Остальные раздачи этого фильма (4)
Благодарности релизеру (60)

Торрент:

Статус:

Размер:

Зарегистрирован   [ 2013-07-24 22:13 ]

проверено

21.67 GB

 
 Мнение о фильме (77)

Пред.  1, 2, 3, 4  След.






нормалды
 

Тупой боевичок, но 3d норм
 

охреннеть размер!
 

покамисть не смотрел в 3d, только скачал.. фильм норм.
 

Фильм на раз, обычный проходной боевик. Пару моментов есть впечатляющих. 3d так себе, не впечатлило ни капли. Один раз посмотреть можно.
 

качество 3d супер фильм тоже хороший
 

качество отличное и фильм хороший. Спасибо
 

 

Посмотрел и забыл!
 

3d нормальное фильм неочень
 

ЗД-в норме
 

лично мне очень понравился фильм
 

фильм понравился , качество не знаю так как посмотрел в другой стереопаре вот там классное качество 3D
 

Обычный боевик. 3Д нормальное. Посмотреть 1 раз можно.
 
Алексей Вахляев Профиль 31-Июл-2013 10:58

Спасибо за раздачу! 3Д нормальное, фильм мне не понравился. Детский, без сюжета, снят плохо, актеры играть не хотят. Виллис лучше бы дома посидел, чем в таком уг сниматься.
 

Спасибо! Фильм нормальный.
 

Эффектов 3d нет, после просмотра удалил.
 

начал смотреть и уснул...
 

Фильм совсем не понравился, первая часть на порядок выше!
 

Сцена в горах просто сногшибательна. 3D отличное.
 

Страница 2 из 4

Пред.  1, 2, 3, 4  След.