Торренты   
 
 


Делай ноги 2 / Happy Feet Two (Джордж Миллер) [2011 г., BDRip, Crop Anamorph OverUnder]

Рейтинг 3D:
Пока никто не голосовал
Рейтинг фильма:
Пока никто не голосовал
 
Вы должны быть авторизированы,
чтобы ставить оценки


Делай ноги 2 / Happy Feet Two
Год выпуска: 2011
Страна: Австралия
Жанр: мультфильм, комедия, семейный, музыка
Продолжительность: 1:39:30
Перевод: Профессиональный (полное дублирование)
Режиссер: Джордж Миллер
В ролях: Элайджа Вуд, Робин Уильямс, Хэнк Азария, Пинк, Брэд Питт, Мэтт Дэймон, София Вергара, Карлос Алазраки, Ломбардо Бойяр, Джефф Гарсиа
Описание: Неутомимый пингвин Мамбл, некогда покоривший своим блестящим танцорским талантом целое племя императорских пингвинов, стал отцом. Его малыш — Эрик, в точности такой же свободолюбивый и независимый, как и папа, но в своих амбициях и авантюрах, несмотря на свой юный возраст, уже способен дать хорошую фору отцу и всем окружающим.
Внимание: Справа и слева у видеоряда обрезано по 236р, что дает возможность просмотра на полный экран (без черных полос) на телевизорах с соотношением сторон 16:9 без изменения пропорций.
Более подробная информация
Релиз группы:
Формат 3D: OverUnder BDRip, Crop Anamorph
Видео: AVC, High@L4.0, 1920х1080, 23,976 кадра/сек, 13,1 Мбит/сек
Аудио: Rus, AC-3, 6 каналов, 640 Кбит/сек, 48,0 КГц
Аудио: Eng, AC-3, 6 каналов, 640 Кбит/сек, 48,0 КГц

Скриншоты




Media Info

Общее
Уникальный идентификатор : 254073378458495457383136937754383126716 (0xBF24C0B52C5B7FAF96D4CD39379490BC)
Полное имя : E:\STEREO CROP\Happy Feet Two_(CROP)_ Rip by Dag13.mkv
Формат : Matroska
Версия формата : Version 2
Размер файла : 10,2 Гбайт
Продолжительность : 1 ч. 39 м.
Общий поток : 14,7 Мбит/сек
Дата кодирования : UTC 2013-07-30 14:04:11
Программа кодирования : mkvmerge v3.4.0 ('Rapunzel') сборка от May 15 2010 09:38:20
Библиотека кодирования : libebml v0.8.0 + libmatroska v0.9.0
Видео
Идентификатор : 1
Формат : AVC
Формат/Информация : Advanced Video Codec
Профиль формата : High@L4.0
Параметр CABAC формата : Да
Параметр ReFrames формата : 4 кадра
Идентификатор кодека : V_MPEG4/ISO/AVC
Продолжительность : 1 ч. 39 м.
Битрейт : 13,1 Мбит/сек
Ширина : 1920 пикселей
Высота : 1080 пикселей
Соотношение сторон : 16:9
Частота кадров : 23,976 кадра/сек
Цветовое пространство : YUV
Субдискретизация насыщенности : 4:2:0
Битовая глубина : 8 бит
Тип развёртки : Прогрессивная
Бит/(Пиксели*Кадры) : 0.264
Размер потока : 9,11 Гбайт (89%)
Заголовок : Rip by Dag13
Библиотека кодирования : x264 core 120 r2145 748fe16
Настройки программы : cabac=1 / ref=4 / deblock=1:-3:-3 / analyse=0x3:0x113 / me=umh / subme=9 / psy=1 / psy_rd=1.00:0.00 / mixed_ref=1 / me_range=16 / chroma_me=1 / trellis=2 / 8x8dct=1 / cqm=0 / deadzone=21,11 / fast_pskip=1 / chroma_qp_offset=-2 / threads=9 / sliced_threads=0 / nr=0 / decimate=1 / interlaced=0 / bluray_compat=0 / constrained_intra=0 / bframes=6 / b_pyramid=2 / b_adapt=2 / b_bias=0 / direct=3 / weightb=1 / open_gop=0 / weightp=2 / keyint=250 / keyint_min=23 / scenecut=40 / intra_refresh=0 / rc_lookahead=60 / rc=crf / mbtree=1 / crf=17.0 / qcomp=0.60 / qpmin=1 / qpmax=69 / qpstep=4 / ip_ratio=1.40 / aq=1:1.00
Язык : English
Default : Нет
Forced : Нет
Аудио #1
Идентификатор : 2
Формат : AC-3
Формат/Информация : Audio Coding 3
Расширение режима : CM (complete main)
Идентификатор кодека : A_AC3
Продолжительность : 1 ч. 39 м.
Вид битрейта : Постоянный
Битрейт : 640 Кбит/сек
Каналы : 6 каналов
Расположение каналов : Front: L C R, Side: L R, LFE
Частота : 48,0 КГц
Битовая глубина : 16 бит
Метод сжатия : С потерями
Размер потока : 455 Мбайт (4%)
Язык : Russian
Default : Да
Forced : Нет
Аудио #2
Идентификатор : 3
Формат : AC-3
Формат/Информация : Audio Coding 3
Расширение режима : CM (complete main)
Идентификатор кодека : A_AC3
Продолжительность : 1 ч. 39 м.
Вид битрейта : Постоянный
Битрейт : 640 Кбит/сек
Каналы : 6 каналов
Расположение каналов : Front: L C R, Side: L R, LFE
Частота : 48,0 КГц
Битовая глубина : 16 бит
Метод сжатия : С потерями
Размер потока : 455 Мбайт (4%)
Язык : English
Default : Нет
Forced : Нет
Благодарности релизеру (18)

Торрент:

Статус:

Размер:

Зарегистрирован   [ 2013-07-30 18:26 ]

проверено

10.2 GB