Торренты   
 
 

 

Падения койота / Coyote Falls (Мэттью О’Каллаган) [2010 г., Anamorph OverUnder]

Рейтинг 3D:
17 голосов
7.8
Рейтинг фильма:
17 голосов
7.8
 
Вы должны быть авторизированы,
чтобы ставить оценки


Падения койота / Coyote Falls Год выпуска: 2010
Страна: США
Жанр: мультфильм, короткометражка, комедия, семейный
Продолжительность: 0:03:02
Перевод: Не требуется
Режиссер: Мэттью О’Каллаган
Описание: Ощущение свободы в обширной пустыне, только добавляет Койоту отчаяния. На сей раз, он решил использовать арсенал современных устройств: заказал эластичный канат для "банджи-джампинга", и приготовил приманку из птичьего корма, под автодорожным мостом. Это верный план, который принимает во внимание всё... почти все...
Формат 3D: Anamorph OverUnder
Видео: AVC, High@L4.1, 1920х1080р, 23,976 кадра/сек, 7481 Кбит/сек
Аудио: Eng, AC-3, 6 каналов, 384 Кбит/сек, 48,0 КГц
Релиз группы:

Проверено на встроенном плейере ТВ LG 42LW4500

Скриншоты

Media Info

Общее
Уникальный идентификатор : 226189163481696578891478000016061726562 (0xAA2A72C415EEB1AFB20CA5AA06497F62)
Полное имя : H:\CoyoteFalls.3D.2010.BD3DRip.Half.OU.x264.AC3.3D-RuGroup.mkv
Формат : Matroska
Версия формата : Version 2
Размер файла : 174 Мбайт
Продолжительность : 3 м. 2 с.
Общий поток : 8025 Кбит/сек
Название фильма : Coyote Falls (2010) 3D release 3D-RuGroup
Дата кодирования : UTC 2013-07-30 18:06:05
Программа кодирования : mkvmerge v3.4.0 ('Rapunzel') сборка от May 15 2010 09:38:20
Библиотека кодирования : libebml v0.8.0 + libmatroska v0.9.0
Видео
Идентификатор : 1
Формат : AVC
Формат/Информация : Advanced Video Codec
Профиль формата : High@L4.1
Параметр CABAC формата : Да
Параметр ReFrames формата : 4 кадра
Идентификатор кодека : V_MPEG4/ISO/AVC
Продолжительность : 3 м. 2 с.
Битрейт : 7481 Кбит/сек
Ширина : 1920 пикселей
Высота : 1080 пикселей
Соотношение сторон : 16:9
Режим частоты кадров : Постоянный
Частота кадров : 23,976 кадра/сек
Цветовое пространство : YUV
Субдискретизация насыщенности : 4:2:0
Битовая глубина : 8 бит
Тип развёртки : Прогрессивная
Бит/(Пиксели*Кадры) : 0.150
Размер потока : 162 Мбайт (93%)
Библиотека кодирования : x264 core 130 r2273 b3065e6
Настройки программы : cabac=1 / ref=4 / deblock=1:-3:-3 / analyse=0x3:0x133 / me=umh / subme=10 / psy=1 / psy_rd=0.80:0.05 / mixed_ref=1 / me_range=32 / chroma_me=1 / trellis=2 / 8x8dct=1 / cqm=0 / deadzone=21,11 / fast_pskip=0 / chroma_qp_offset=-3 / threads=12 / lookahead_threads=2 / sliced_threads=0 / nr=0 / decimate=1 / interlaced=0 / bluray_compat=0 / constrained_intra=0 / bframes=7 / b_pyramid=2 / b_adapt=2 / b_bias=0 / direct=3 / weightb=1 / open_gop=0 / weightp=2 / keyint=250 / keyint_min=23 / scenecut=40 / intra_refresh=0 / rc_lookahead=60 / rc=crf / mbtree=1 / crf=15.0 / qcomp=0.60 / qpmin=0 / qpmax=69 / qpstep=4 / vbv_maxrate=50000 / vbv_bufsize=62500 / crf_max=0.0 / nal_hrd=none / ip_ratio=1.40 / aq=1:0.90
Default : Нет
Forced : Нет
Аудио
Идентификатор : 2
Формат : AC-3
Формат/Информация : Audio Coding 3
Расширение режима : CM (complete main)
Параметр Endianness формата : Big
Идентификатор кодека : A_AC3
Продолжительность : 3 м. 2 с.
Вид битрейта : Постоянный
Битрейт : 384 Кбит/сек
Каналы : 6 каналов
Расположение каналов : Front: L C R, Side: L R, LFE
Частота : 48,0 КГц
Битовая глубина : 16 бит
Метод сжатия : С потерями
Размер потока : 8,34 Мбайт (5%)
Default : Нет
Forced : Нет
Благодарности релизеру (33)

Торрент:

Статус:

Размер:

Зарегистрирован   [ 2013-07-30 22:35 ]

проверено

174 MB

 
 Мнение о фильме (9)





Прикольный мульт,но жалко ,что такой короткий
 

очень яркий смешной хочу еще таких мультиков
 
АНДРЕЙЗ0Л0Т0К Профиль 19-Авг-2013 11:51

3D замечательное, мультфильм захватывающий и интересен будет разной возрастной аудитории.
StarSranger спасибо за качественный релиз.
 

Скачал для внуков и сам получил удовольствие. СПАСИБО!
 

Забавный и 3Д на уровне.
 

мАлой (6лет) понравилось
 
александр54 Профиль 08-Янв-2014 03:18

Дети просто в восторге.
 

Встанте на раздачу ПЛЗ)))
 

Мал да удал.СПАСИБО класс)))