Торренты   
 
 

 

Летающие меха / Fur of Flying (Мэттью О’Каллаган) [2010 г., Anamorph OverUnder]

Рейтинг 3D:
14 голосов
8.2
Рейтинг фильма:
14 голосов
7.3
 
Вы должны быть авторизированы,
чтобы ставить оценки


Летающие меха / Fur of Flying
Год выпуска: 2010
Страна: США
Жанр: мультфильм, короткометражка, комедия
Продолжительность: 0:03:05
Перевод: Не требуется
Режиссер: Мэттью О’Каллаган
Описание: Всеми любимый койот возвращается. На этот раз он воспользуется самодельным пропеллером, как всегда эта идея не совсем удачна…
Формат 3D: Anamorph OverUnder
Видео: AVC, High@L4.1, 1920х1080р, 23,976 кадра/сек, 8554 Кбит/сек
Аудио: Eng, AC-3, 6 каналов, 640 Кбит/сек, 48,0 КГц
Релиз группы:

Проверено на встроенном плейере ТВ LG 42LW4500

Скриншоты

Media Info

Общее
Уникальный идентификатор : 228942984286353056141533615090292405454 (0xAC3CD09D4007B5E3ABAB697D05BEB4CE)
Полное имя : H:\FurOfFlying.3D.2010.BD3DRip.Half.OU.x264.AC3.3D-RuGroup.mkv
Формат : Matroska
Версия формата : Version 2
Размер файла : 206 Мбайт
Продолжительность : 3 м. 4 с.
Общий поток : 9381 Кбит/сек
Название фильма : Fur of Flying (2010) 3D release 3D-RuGroup
Дата кодирования : UTC 2013-08-04 10:56:29
Программа кодирования : mkvmerge v3.4.0 ('Rapunzel') сборка от May 15 2010 09:38:20
Библиотека кодирования : libebml v0.8.0 + libmatroska v0.9.0
Видео
Идентификатор : 1
Формат : AVC
Формат/Информация : Advanced Video Codec
Профиль формата : High@L4.1
Параметр CABAC формата : Да
Параметр ReFrames формата : 4 кадра
Идентификатор кодека : V_MPEG4/ISO/AVC
Продолжительность : 3 м. 4 с.
Битрейт : 8554 Кбит/сек
Ширина : 1920 пикселей
Высота : 1080 пикселей
Соотношение сторон : 16:9
Режим частоты кадров : Постоянный
Частота кадров : 23,976 кадра/сек
Цветовое пространство : YUV
Субдискретизация насыщенности : 4:2:0
Битовая глубина : 8 бит
Тип развёртки : Прогрессивная
Бит/(Пиксели*Кадры) : 0.172
Размер потока : 188 Мбайт (91%)
Библиотека кодирования : x264 core 130 r2273 b3065e6
Настройки программы : cabac=1 / ref=4 / deblock=1:-3:-3 / analyse=0x3:0x133 / me=umh / subme=10 / psy=1 / psy_rd=0.80:0.05 / mixed_ref=1 / me_range=32 / chroma_me=1 / trellis=2 / 8x8dct=1 / cqm=0 / deadzone=21,11 / fast_pskip=0 / chroma_qp_offset=-3 / threads=12 / lookahead_threads=2 / sliced_threads=0 / nr=0 / decimate=1 / interlaced=0 / bluray_compat=0 / constrained_intra=0 / bframes=7 / b_pyramid=2 / b_adapt=2 / b_bias=0 / direct=3 / weightb=1 / open_gop=0 / weightp=2 / keyint=250 / keyint_min=23 / scenecut=40 / intra_refresh=0 / rc_lookahead=60 / rc=crf / mbtree=1 / crf=15.0 / qcomp=0.60 / qpmin=0 / qpmax=69 / qpstep=4 / vbv_maxrate=50000 / vbv_bufsize=62500 / crf_max=0.0 / nal_hrd=none / ip_ratio=1.40 / aq=1:0.90
Default : Да
Forced : Нет
Аудио
Идентификатор : 2
Формат : AC-3
Формат/Информация : Audio Coding 3
Расширение режима : CM (complete main)
Параметр Endianness формата : Big
Идентификатор кодека : A_AC3
Продолжительность : 3 м. 4 с.
Вид битрейта : Постоянный
Битрейт : 640 Кбит/сек
Каналы : 6 каналов
Расположение каналов : Front: L C R, Side: L R, LFE
Частота : 48,0 КГц
Битовая глубина : 16 бит
Метод сжатия : С потерями
Размер потока : 14,1 Мбайт (7%)
Default : Да
Forced : Нет
Благодарности релизеру (26)

Торрент:

Статус:

Размер:

Зарегистрирован   [ 2013-08-04 15:13 ]

проверено

206 MB

 
 Мнение о фильме (8)





Там же еще один должен быть Rabid Rider
 

3D на высоте!!!
 

^-))
 

хорошо, но мало.
 

еще хочу
 
АНДРЕЙЗ0Л0Т0К Профиль 19-Авг-2013 11:52

Большое спасибо за мульт !!!!!
 

Мультик, динамичный, хотелось бы больше вылетов.
 
Владимир-4121 Профиль 25-Авг-2013 21:58

Норм