Торренты   
 
 


Работа за орехи в 3Д / Working for Peanuts 3D (Джек Ханна / Jack Hannah) [1953 г., Детский, семейный, мультфильм, BDrip 720p] SideBySide / Горизонтальная стереопара

Рейтинг 3D:
Пока никто не голосовал
Рейтинг фильма:
Пока никто не голосовал
 
Вы должны быть авторизированы,
чтобы ставить оценки


Работа за орехи 3Д / Working for Peanuts 3D
Год выпуска: 1953
Страна: США
Жанр: Детский, семейный, мультфильм
Продолжительность: 00:06:49
Перевод: Профессиональный дубляж
Русские субтитры: нет
Производство: Walt Disney
Режиссер: Джек Ханна
Описание: "Работа за орехи" является одним из первых короткометражных мультфильмов, снятым студией Walt Disney в формате 3D. В свое время этот мультфильм был представлен в тематических атракционах в парках Диснейленда.
Качество: BDrip
Формат: MKV
Формат 3D: SideBySide / Горизонтальная стереопара
Видео кодек: x264
Аудио кодек: AC3
Видео: MPEG4 Video (H264) 1920x704 23.98fps ~5.3 Mbps
Аудио (RUS): Dolby AC3 48000Hz 2ch,192 Kbps
Аудио (ENG): Dolby AC3 48000Hz 6ch, 640 kbps

mi

Format : Matroska
File size : 313 MiB
Duration : 6mn 54s
Overall bit rate : 6 326 Kbps
Encoded date : UTC 2010-08-19 05:35:35
Writing application : mkvmerge v2.9.7 ('Tenderness') built on Jul 1 2009 18:43:35
Writing library : libebml v0.7.7 + libmatroska v0.8.1
Video
ID : 1
Format : AVC
Format/Info : Advanced Video Codec
Format profile : High@L4.0
Format settings, CABAC : Yes
Format settings, ReFrames : 4 frames
Format_Settings_GOP : M=1, N=16
Muxing mode : Container profile=Unknown@4.0
Codec ID : V_MPEG4/ISO/AVC
Duration : 6mn 54s
Bit rate : 5 368 Kbps
Width : 1 920 pixels
Height : 704 pixels
Display aspect ratio : 2.730
Frame rate : 23.976 fps
Resolution : 8 bits
Colorimetry : 4:2:0
Scan type : Progressive
Bits/(Pixel*Frame) : 0.166
Stream size : 265 MiB (85%)
Writing library : x264 core 104 r1688 0b36c6d
Encoding settings : cabac=1 / ref=4 / deblock=1:1:1 / analyse=0x3:0x113 / me=umh / subme=7 / psy=1 / psy_rd=0.40:0.00 / mixed_ref=1 / me_range=16 / chroma_me=1 / trellis=2 / 8x8dct=1 / cqm=0 / deadzone=21,11 / fast_pskip=1 / chroma_qp_offset=-2 / threads=6 / sliced_threads=0 / nr=0 / decimate=1 / interlaced=0 / constrained_intra=0 / bframes=6 / b_pyramid=0 / b_adapt=2 / b_bias=0 / direct=3 / weightb=1 / open_gop=0 / weightp=2 / keyint=250 / keyint_min=23 / scenecut=40 / intra_refresh=0 / rc_lookahead=40 / rc=crf / mbtree=1 / crf=18.0 / qcomp=0.60 / qpmin=10 / qpmax=51 / qpstep=4 / ip_ratio=1.40 / aq=1:0.60
Language : English
Audio #1
ID : 2
Format : AC-3
Format/Info : Audio Coding 3
Format_Settings_ModeExtension : CM (complete main)
Codec ID : A_AC3
Duration : 6mn 54s
Bit rate mode : Constant
Bit rate : 192 Kbps
Channel(s) : 2 channels
Channel positions : Front: L R
Sampling rate : 48.0 KHz
Video delay : 20ms
Stream size : 9.49 MiB (3%)
Language : Russian
Audio #2
ID : 3
Format : AC-3
Format/Info : Audio Coding 3
Format_Settings_ModeExtension : CM (complete main)
Codec ID : A_AC3
Duration : 6mn 54s
Bit rate mode : Constant
Bit rate : 640 Kbps
Channel(s) : 6 channels
Channel positions : Front: L C R, Side: L R, LFE
Sampling rate : 48.0 KHz
Stream size : 31.6 MiB (10%)
Language : English

Скриншоты

Благодарности релизеру (0)

Торрент:

Статус:

Размер:

Зарегистрирован   [ 2010-08-19 09:49 ]

проверено

313 MB