Торренты   
 
 

 

Завораживающие Багамские острова: Таинственные пещеры и затонувшие корабли в 3Д / Adventure Bahamas: Mysterious Caves and Wrecks 3D (Jürgen Klimmeck) [2012, Документальный, BDrip, 1080p]Full OverUnder / Вертикальная стереопара

Рейтинг 3D:
24 голосов
8.2
Рейтинг фильма:
24 голосов
7.9
 
Вы должны быть авторизированы,
чтобы ставить оценки


Завораживающие Багамские острова: Таинственные пещеры и затонувшие корабли / Adventure Bahamas: Mysterious Caves and Wrecks
Год выпуска: 2012
Страна: Германия
Студия: KSM
Жанр: Документальный
Продолжительность: 00:52:32
Перевод: Студийный (одноголосый закадровый)
Русские субтитры: нет
Режиссер на русском:Юрген Климмек
Режиссер на английском: Jürgen Klimmeck
Описание: Багамские острова давно стали синонимом удивительных и загадочных приключений. Живописный архипелаг в Атлантическом океане между Кубой и Флоридой, насчитывающий около 2500 рифов и 700 островов, давно стал настоящей Меккой для любителей экстремального дайвинга. Уникальные съемки красот подводного мира, древних пещер и затонувших кораблей, откроют все тайны океана истинным любителям морских глубин.
Сэмпл: http://www.sendspace.com/file/8e868a
Качество: BDrip
Контейнер: MKV
Формат 3D: OverUnder / Вертикальная стереопара
Порядок ракурсов: левый ракурс первый
Видео кодек: x264
Аудио кодек: AC3
Видео: AVC / High@L5.0 / 23,976 fps / 1920х2160 / 28,5 Мбит/сек
Аудио: Русский / AC3 / 48 KHz / 5.1 ch / 640 Kbps
Аудио 2: Английский / AC3 / 48 KHz / 5.1 ch / 640 Kbps
Релиз группы: ВНИМАНИЕ ! На встроенных ТВ-плеерах работать не будет!!!
Железные плееры на которых воспроизводятся полные стереопары:Popcorn C-200 , Dune HD Smart D1 , Dune HD DUO , Dune HD Smart H1 , Dune HD Smart B1 , Dune HD Max , Dune HD TV-303D , Dune HD Base 3D

MediaInfo

Общее
Уникальный идентификатор : 227080683290583038857841819892352262986 (0xAAD626160FA08DE08D795DF70107A34A)
Полное имя : F:\видео\Adventure Bahamas Mysterious Caves and Wrecks .Rip by SeRoGa00.mkv
Формат : Matroska
Версия формата : Version 2
Размер файла : 11,2 Гбайт
Продолжительность : 52 м.
Общий поток : 30,4 Мбит/сек
Дата кодирования : UTC 2013-08-07 08:22:21
Программа кодирования : mkvmerge v3.4.0 ('Rapunzel') сборка от May 15 2010 09:38:20
Библиотека кодирования : libebml v0.8.0 + libmatroska v0.9.0
Видео
Идентификатор : 1
Формат : AVC
Формат/Информация : Advanced Video Codec
Профиль формата : High@L5.0
Параметр CABAC формата : Да
Параметр ReFrames формата : 4 кадра
Идентификатор кодека : V_MPEG4/ISO/AVC
Продолжительность : 52 м.
Битрейт : 28,5 Мбит/сек
Ширина : 1920 пикселей
Высота : 2160 пикселей
Соотношение сторон : 0,889
Частота кадров : 23,976 кадра/сек
Цветовое пространство : YUV
Субдискретизация насыщенности : 4:2:0
Битовая глубина : 8 бит
Тип развёртки : Прогрессивная
Бит/(Пиксели*Кадры) : 0.287
Размер потока : 10,5 Гбайт (94%)
Заголовок : Rip by SeRoGa00
Библиотека кодирования : x264 core 128 r2216kMod 198a7ea
Настройки программы : cabac=1 / ref=4 / deblock=1:-3:-3 / analyse=0x3:0x113 / me=umh / subme=9 / psy=1 / fade_compensate=0.00 / psy_rd=1.00:0.15 / mixed_ref=1 / me_range=16 / chroma_me=1 / trellis=2 / 8x8dct=1 / cqm=0 / deadzone=21,11 / fast_pskip=1 / chroma_qp_offset=-3 / threads=9 / lookahead_threads=1 / sliced_threads=0 / nr=0 / decimate=1 / interlaced=0 / bluray_compat=0 / constrained_intra=0 / bframes=6 / b_pyramid=2 / b_adapt=2 / b_bias=0 / direct=3 / weightb=1 / open_gop=0 / weightp=2 / keyint=250 / keyint_min=23 / scenecut=40 / intra_refresh=0 / rc_lookahead=60 / rc=crf / mbtree=1 / crf=18.0000 / qcomp=0.60 / qpmin=10 / qpmax=69 / qpstep=4 / vbv_maxrate=40000 / vbv_bufsize=40000 / crf_max=0.0 / nal_hrd=none / ip_ratio=1.40 / aq=1:1.00
Язык : English
Аудио #1
Идентификатор : 2
Формат : AC-3
Формат/Информация : Audio Coding 3
Расширение режима : CM (complete main)
Идентификатор кодека : A_AC3
Продолжительность : 52 м.
Вид битрейта : Постоянный
Битрейт : 640 Кбит/сек
Каналы : 6 каналов
Расположение каналов : Front: L C R, Side: L R, LFE
Частота : 48,0 КГц
Битовая глубина : 16 бит
Метод сжатия : С потерями
Размер потока : 241 Мбайт (2%)
Язык : Russian
Аудио #2
Идентификатор : 3
Формат : AC-3
Формат/Информация : Audio Coding 3
Расширение режима : CM (complete main)
Идентификатор кодека : A_AC3
Продолжительность : 52 м.
Вид битрейта : Постоянный
Битрейт : 640 Кбит/сек
Каналы : 6 каналов
Расположение каналов : Front: L C R, Side: L R, LFE
Частота : 48,0 КГц
Битовая глубина : 16 бит
Метод сжатия : С потерями
Размер потока : 241 Мбайт (2%)
Язык : English

Скриншоты


Остальные раздачи этого фильма (2)
Благодарности релизеру (6)

Торрент:

Статус:

Размер:

Зарегистрирован   [ 2013-08-07 17:45 ]

проверено

11.15 GB

 
 Мнение о фильме (10)





Глубина картинки хорошая. Вот бы перевод еще.
 

+1
 

Глубина картинки хорошая. Вот бы перевод еще.
Ура! Дождались!
 

Немцы на высоте.Студия (New KSM) снимает качественное3D
 

Супер! Спасибо! Почти на час полностью погрузился в подводный мир...особенно великолепны крупные виды рыб в подводных пещерах! Перевод хороший...в общем всем рекомендую :)
 

Мое мнение такое - стандартный фильм, стандартные и уже поднадоевшие подводные съемки. 3D вполне приемлемо. Я даже и смотреть до конца не стал... Их, подобных фильмов, у мя куча. Да, озвучка хорошая.
 

так если поднадоели - НЕ КАЧАЙ!!
 

Фильм очень даже неплохой посмотрел с наслаждением хорошее 3д хороший звук всем советую посмотреть!!!
 

Спасибо за прекрасный фильм! Замечательный 3D, качественная озвучка, интересные комментарии.
 

Хороший фильм. Вовсе не ординарный. Совершенно отличный от Красноморского подводный мир. Приятная музыка, создающая атмосферу (если можно так выразиться про подводный мир). Неторопливый монтаж, позволяющий рассмотреть детали и окружающую обстановку. Отличная 3D глубина, но не без косяков: кое где балуются с параллаксами, кое где рассинхрончик. В пещерах - всё бесподобно. Мало кому посчастливится наблюдать подобное воочую. Высокие оценки заслужены. И благодарность автору. )