Торренты   
 
 


Телепорт / Jumper (Дaг Лaймaн) BDRemux [2008 г.]

Нужны ли данные типы раздач.

Да   70%  70%  [ 56 ]
Нет   30%  30%  [ 24 ]

Всего проголосовало : 80

Рейтинг 3D:
Пока никто не голосовал
Рейтинг фильма:
Пока никто не голосовал
 
Вы должны быть авторизированы,
чтобы ставить оценки


Телепорт / Jumper
Год выпуска: 2008
Страна: США, Канада
Жанр: Фантастика, Боевик, Приключения
Продолжительность: 01:28:21
Перевод: Профессиональный (полное дублирование)
Режиссер: Дaг Лaймaн
В ролях: Хейден Кристенсен, Сэмюэл Л. Джексон, Дайан Лэйн, Джейми Белл, Рэйчел Билсон, Майкл Рукер, АннаСофия Робб, Макс Тириот, Джесси Джеймс, Том Хульц, Кристен Стюарт, Тедди Данн, Барбара Гаррик, Майкл Уинтер, Массимилиано Паццаглиа, Шоун Робертс, Натали Кокс, Мередит Хендерсон, Дамир Андрей, Тони Нэппо, Джордж Кинг, Кларк Бисли, Симона Лиси, Маттео Карломаньо, Фабрицио Буччи, Джорджо Сантанжело, Марселло Сантони, Франко Сальваторе Ди Стефано, Анджело Лопез, Роберто Антонелли
Описание: Подросток из неблагополучного района Дэвид Райс всегда считал себя обычным парнем, пока однажды он не узнал, что он может телепортироваться с места на место. Новые способности открыли перед ним весь мир. Он может побывать в Нью-Йорке и Токио, посетить античные развалины в Риме, увидеть «крышу мира» с горы Эверест, увидеть 20 рассветов и 20 закатов. И все — в один день. Теперь ему не нужны деньги — он может взять сколько хочет. Однако в один момент он обнаруживает, что стал мишенью. На него, как и на других подобных ему, объявлена охота. На протяжении тысячи лет тайное общество стремится уничтожить их. Вскоре Дэвид узнает истинную ценность его новых способностей.
Видео: AVC, High@L4.0, 1920х1080, 23,976 кадра/сек, 46,7 Мбит/сек
Аудио: Rus, DTS, 6 каналов, 755 Кбит/сек, 48,0 КГц
Аудио: Eng, DTS, 6 каналов, 1510 Кбит/сек, 48,0 КГц

Скриншоты




Media Info

Общее
Уникальный идентификатор : 219609093514748415151383372365296273183 (0xA5372C44E080BB3F85D3CF0DAF8B871F)
Полное имя : E:\STREAM\Jumper_BDRemux.mkv
Формат : Matroska
Версия формата : Version 2
Размер файла : 30,8 Гбайт
Продолжительность : 1 ч. 28 м.
Общий поток : 49,9 Мбит/сек
Название фильма : Jumper
Дата кодирования : UTC 2013-08-08 19:00:19
Программа кодирования : mkvmerge v3.4.0 ('Rapunzel') сборка от May 15 2010 09:38:20
Библиотека кодирования : libebml v0.8.0 + libmatroska v0.9.0
Видео
Идентификатор : 1
Формат : AVC
Формат/Информация : Advanced Video Codec
Идентификатор кодека : V_MPEG4/ISO/AVC
Продолжительность : 1 ч. 28 м.
Битрейт : 46,7 Мбит/сек
Ширина : 1920 пикселей
Высота : 1080 пикселей
Соотношение сторон : 16:9
Частота кадров : 23,976 кадра/сек
Бит/(Пиксели*Кадры) : 0.939
Размер потока : 28,8 Гбайт (93%)
Язык : English
Default : Нет
Forced : Нет
Аудио #1
Идентификатор : 2
Формат : DTS
Формат/Информация : Digital Theater Systems
Идентификатор кодека : A_DTS
Продолжительность : 1 ч. 28 м.
Вид битрейта : Постоянный
Битрейт : 755 Кбит/сек
Каналы : 6 каналов
Расположение каналов : Front: L C R, Side: L R, LFE
Частота : 48,0 КГц
Битовая глубина : 24 бит
Метод сжатия : С потерями
Размер потока : 477 Мбайт (2%)
Язык : Russian
Default : Да
Forced : Нет
Аудио #2
Идентификатор : 3
Формат : DTS
Формат/Информация : Digital Theater Systems
Идентификатор кодека : A_DTS
Продолжительность : 1 ч. 28 м.
Вид битрейта : Постоянный
Битрейт : 1510 Кбит/сек
Каналы : 6 каналов
Расположение каналов : Front: L C R, Side: L R, LFE
Частота : 48,0 КГц
Битовая глубина : 24 бит
Метод сжатия : С потерями
Размер потока : 954 Мбайт (3%)
Язык : English
Default : Нет
Forced : Нет
Меню
00:00:00.000 : en:Chapter 01
00:04:21.094 : en:Chapter 02
00:07:52.555 : en:Chapter 03
00:12:35.713 : en:Chapter 04
00:15:08.699 : en:Chapter 05
00:17:46.982 : en:Chapter 06
00:22:51.787 : en:Chapter 07
00:25:51.466 : en:Chapter 08
00:28:57.235 : en:Chapter 09
00:31:46.988 : en:Chapter 10
00:32:57.058 : en:Chapter 11
00:36:18.092 : en:Chapter 12
00:39:52.640 : en:Chapter 13
00:43:21.056 : en:Chapter 14
00:48:47.299 : en:Chapter 15
00:51:01.725 : en:Chapter 16
00:54:48.285 : en:Chapter 17
00:59:15.969 : en:Chapter 18
01:02:11.728 : en:Chapter 19
01:07:32.673 : en:Chapter 20
01:12:45.402 : en:Chapter 21
01:17:04.411 : en:Chapter 22
01:20:39.584 : en:Chapter 23
01:23:49.065 : en:Chapter 24
На встроенных ТВ-плейерах показывать НЕ будет!!!
Просмотр возможен только Stereoscopic Player-ом начиная с версии 1.9.6
Благодарности релизеру (0)

Торрент:

Статус:

Размер:

Зарегистрирован   [ 2013-08-10 15:55 ]

проверено

30.83 GB