Торренты   
 
 

 

IMAX. Приключение в Большом каньоне - Река в опасности 3D / Grand Canyon Adventure - River at Risk 3D (Greg MacGillivray) [2008 г., 720p, OverUnder]

Рейтинг 3D:
44 голосов
8.5
Рейтинг фильма:
43 голосов
8.0
 
Вы должны быть авторизированы,
чтобы ставить оценки


IMAX. Приключение в Большом каньоне - Река в опасности 3D / Grand Canyon Adventure - River at Risk 3D
Год выпуска: 2008
Страна: США
Жанр: Документальный / Живая природа
Продолжительность: 00:44:36
Перевод: Субтитры
Режиссер: Greg MacGillivray
В ролях: Уэйд Дэвис, Никки Келли, Роберт Редфорд, Шена Ватахомиге
Описание: Мощный фильм от создателей «Эверест», рассказывающий об угрозе, нависшей над одним из главных пейзажных символов Америки.
Вы увидите великую реку Колорадо, которая напомнит нам о самой гнетущей современной проблеме окружающей среды – нарастающая нехватка пресной воды во всем мире. Присоединитесь к адвокатам, занимающимся защитой окружающей среды, - Роберту Ф. Кеннеди Мл. и Уэйду Дэвису и их дочерям, путешествующим в глубину Большого Каньона вниз по течению реки, протекающей сквозь него. У вас участиться пульса, когда вы увидите захватывающую поездку по реке через стремительные пороги и поразительные каньоны. С помощью сногсшибательных фотографий и съемок с воздуха новоявленные кинематографисты попытаются захватить всю красоту реки Колорадо и Большого Каньона.
Комментирует фильм – обладатель Оскара, актер, кинематографист и убежденный борец за сохранение окружающей среды Роберт Редфорд. Песни и музыку исполняет обладатель премии Гремми оркестр Дэйва Мэттьюса. Этот фильм заставит вас проявлять больше уважения к реками и воде и попытается донести осознание того, что и обычные люди могут изменить нашу высыхающую планету к лучшему.
Доп. информация: Первый IMAX фильм в формате BD3D
Формат 3d: OverUnder

Видео и аудио потоки

Format : Matroska
File size : 4.27 GiB
Duration : 44mn 36s
Overall bit rate : 13.7 Mbps
Encoded date : UTC 2010-07-25 12:25:58
Writing application : mkvmerge v4.1.1 ('Bouncin' Back') сборка от Jul 3 2010 22:54:08
Writing library : libebml v1.0.0 + libmatroska v1.0.0
Video
ID : 1
Format : AVC
Format/Info : Advanced Video Codec
Format profile : High@L4.0
Format settings, CABAC : Yes
Format settings, ReFrames : 4 frames
Muxing mode : Container profile=Unknown@4.0
Codec ID : V_MPEG4/ISO/AVC
Duration : 44mn 36s
Bit rate : 12.8 Mbps
Width : 1 280 pixels
Height : 1 440 pixels
Display aspect ratio : 0.889
Frame rate : 23.976 fps
Resolution : 8 bits
Colorimetry : 4:2:0
Scan type : Progressive
Bits/(Pixel*Frame) : 0.289
Stream size : 3.98 GiB (93%)
Audio
ID : 2
Format : AC-3
Format/Info : Audio Coding 3
Format_Settings_ModeExtension : CM (complete main)
Codec ID : A_AC3
Duration : 44mn 36s
Bit rate mode : Constant
Bit rate : 640 Kbps
Channel(s) : 6 channels
Channel positions : Front: L C R, Side: L R, LFE
Sampling rate : 48.0 KHz
Stream size : 204 MiB (5%)
Text
ID : 3
Format : UTF-8
Codec ID : S_TEXT/UTF8
Codec ID/Info : UTF-8 Plain Text
Language : Russian

Скриншоты



Русская дорожка http://torrents3d.ru/viewtopic.php?t=1093&view=newest#newest
Остальные раздачи этого фильма (5)
Благодарности релизеру (2)

Торрент:

Статус:

Размер:

Зарегистрирован   [ 2010-08-19 21:52 ]

проверено

4.27 GB