Торренты   
 
 


Teлeпopт / Jumреr (Дaг Лaймaн) [2008 г., BDRip 1080p, Half OverUnder]

Рейтинг 3D:
22 голосов
6.6
Рейтинг фильма:
24 голосов
8.0
 
Вы должны быть авторизированы,
чтобы ставить оценки


Teлeпopт / Jumреr
Год выпуска: 2008
Страна: США, Канада
Жанр: Фантастика, Боевик, Приключения,
Продолжительность: 01:28:19
Перевод: Дубляж + Оригинал
Режиссер: Дaг Лaймaн
В ролях: Хейден Кристенсен, Сэмюэл Л. Джексон, Дайан Лэйн, Джэми Белл, Рэйчел Билсон, Майкл Рукер, АннаСофия Робб, Макс Тириот, Джесси Джеймс, Том Хульц, Кристен Стюарт
Дублировали: Александр Солдатов, Александр Койгеров, Ксения Кладько, Вадим Гущин, Анатолий Дубанов...,
Описание: Подросток из неблагополучного района Дэвид Райс всегда считал себя обычным парнем, пока однажды он не узнал, что он может телепортироваться с места на место. Новые способности открыли перед ним весь мир. Он может побывать в Нью-Йорке и Токио, посетить античные развалины в Риме, увидеть «крышу мира» с горы Эверест, увидеть 20 рассветов и 20 закатов. И все — в один день.
Теперь ему не нужны деньги — он может взять сколько хочет. Однако в один момент он обнаруживает, что стал мишенью. На него, как и на других подобных ему, объявлена охота. На протяжении тысячи лет тайное общество стремится уничтожить их. Вскоре Дэвид узнает истинную ценность его новых способностей.

Формат 3D: Half OverUnder / Вертикальная анаморфная стереопара

Качество: BDRip 1080p
Формат: MKV
Видео кодек: H.264
Аудио кодек: AC3
Видео: 1920 х 1080 / 23,976 fps, (16:9) / 10,3 Mbps, (0.208 bit/pixel)
Аудио#1: Русский / AC3 / 48 KHz / 5.1 ch / 448 Kbps
Аудио#2: Английский / AC3 / 48 KHz / 5.1 ch / 448 Kbps
Субтитры: Russian, English

Скриншоты

Media Info

Общее
Уникальный идентификатор : 224714471696838348924075490482622578107 (0xA90E6ED8F1C8BEE78AAC24EFFD143DBB)
Полное имя : D:\DVD\Jumper.3D.2008.1080p.BluRay.Half-OU.x264-PublicHD.mkv
Формат : Matroska
Версия формата : Version 4 / Version 2
Размер файла : 8,22 Гбайт
Продолжительность : 1 ч. 42 м.
Общий поток : 11,5 Мбит/сек
Название фильма : Teлeпopт / Jumper.3D.2008.1080p.BluRay.Half-OU.x264-PublicHD
Дата кодирования : UTC 2013-08-10 13:47:13
Программа кодирования : mkvmerge v6.2.0 ('Promised Land') built on Apr 28 2013 12:22:01
Библиотека кодирования : libebml v1.3.0 + libmatroska v1.4.0
Видео
Идентификатор : 1
Формат : AVC
Формат/Информация : Advanced Video Codec
Профиль формата : High@L4.1
Параметр CABAC формата : Да
Параметр ReFrames формата : 2 кадра
Идентификатор кодека : V_MPEG4/ISO/AVC
Продолжительность : 1 ч. 42 м.
Битрейт : 10,3 Мбит/сек
Ширина : 1920 пикселей
Высота : 1080 пикселей
Соотношение сторон : 16:9
Режим частоты кадров : Постоянный
Частота кадров : 23,976 кадра/сек
Цветовое пространство : YUV
Субдискретизация насыщенности : 4:2:0
Битовая глубина : 8 бит
Тип развёртки : Прогрессивная
Бит/(Пиксели*Кадры) : 0.208
Размер потока : 7,41 Гбайт (90%)
Заголовок : Jumper.3D.2008.1080p.BluRay.Half-OU.x264-PublicHD.mkv
Библиотека кодирования : x264 core
Язык : English
Default : Нет
Forced : Нет
Основные цвета : BT.709
Характеристики трансфера : BT.709
Коэффициенты матрицы : BT.709
Аудио #1
Идентификатор : 2
Формат : AC-3
Формат/Информация : Audio Coding 3
Расширение режима : CM (complete main)
Параметр Endianness формата : Big
Идентификатор кодека : A_AC3
Продолжительность : 1 ч. 42 м.
Вид битрейта : Постоянный
Битрейт : 448 Кбит/сек
Каналы : 6 каналов
Расположение каналов : Front: L C R, Side: L R, LFE
Частота : 48,0 КГц
Битовая глубина : 16 бит
Метод сжатия : С потерями
Задержка видео : 168 мс.
Размер потока : 329 Мбайт (4%)
Язык : Russian
Default : Нет
Forced : Да
Аудио #2
Идентификатор : 3
Формат : AC-3
Формат/Информация : Audio Coding 3
Расширение режима : CM (complete main)
Параметр Endianness формата : Big
Идентификатор кодека : A_AC3
Продолжительность : 1 ч. 42 м.
Вид битрейта : Постоянный
Битрейт : 448 Кбит/сек
Каналы : 6 каналов
Расположение каналов : Front: L C R, Side: L R, LFE
Частота : 48,0 КГц
Битовая глубина : 16 бит
Метод сжатия : С потерями
Задержка видео : 168 мс.
Размер потока : 329 Мбайт (4%)
Язык : English
Default : Нет
Forced : Нет
Текст #1
Идентификатор : 4
Формат : UTF-8
Идентификатор кодека : S_TEXT/UTF8
Идентификатор кодека/Информация : UTF-8 Plain Text
Язык : Russian
Default : Да
Forced : Нет
Текст #2
Идентификатор : 5
Формат : UTF-8
Идентификатор кодека : S_TEXT/UTF8
Идентификатор кодека/Информация : UTF-8 Plain Text
Язык : English
Default : Нет
Forced : Нет
Благодарности релизеру (16)

Торрент:

Статус:

Размер:

Зарегистрирован   [ 2013-08-12 13:49 ]

* не проверено

8.22 GB

 
 Мнение о фильме (5)





фильм хороший.3д-неглубокое но от этого фильм нисколько не стал хуже
 

Фильм фантастический. Изображение объёмное, но без впечатляющих 3D эффектов, характерных для фильмов этого жанра.
 

пока ни че сказать не могу, буду смотреть на выходных
 

Как раз к такому жанру не хватает полной глубины 3d. А в остальном неплохо..
 

"Я, робот" теперь ещё и "Телепорт". Надеюсь в скором будущем может и "Матрицу" в 3Д сделают, очень бы хотелось посмотреть в новом качестве. В целом фильм хорош в своём жанре.