Торренты   
 
 

 

Вeликий Гэтсби / The Grеаt Gаtsby (Баз Лурман) [2013 г., BDrip, Anamorph OverUnder]

Рейтинг 3D:
328 голосов
8.0
Рейтинг фильма:
332 голосов
8.0
 
Вы должны быть авторизированы,
чтобы ставить оценки



Великий Гэтсби / The Great Gatsby
Год выпуска: 2013
Страна: Австралия, США
Жанр: драма, мелодрама
Продолжительность: 02:22:06
Перевод:
Профессиональный (полное дублирование)
Режиссер: Баз Лурман
В ролях: Леонардо ДиКаприо, Тоби Магуайр, Кэри Маллиган, Джоэл Эдгертон, Айла Фишер, Лиза Адам, Фрэнк Элдридж, Амитабх Баччан, Стив Бисли, Ричард Картер
Описание: Весной 1922 года, в эпоху разлагающейся морали, блистательного джаза и «королей контрабандного алкоголя», Ник Каррауэй приезжает из Среднего Запада в Нью-Йорк. Преследуя собственную американскую мечту, он селится по соседству с таинственным, известным своими вечеринками миллионером Джеем Гэтсби, а на противоположном берегу бухты проживают его кузина Дэйзи и её муж, повеса и аристократ, Том Бьюкенен. Так Ник оказывается вовлечённым в захватывающий мир богатых — их иллюзий, любви и обманов. Он становится свидетелем происходящего в этом мире и пишет историю невозможной любви, вечных мечтаний и человеческой трагедии, которые являются отражением современных времен и нравов.
Качество: BDrip
Контейнер: MKV
Формат 3D: Anamorph OverUnder / Вертикальная анаморфная стереопара
Видео кодек: x264
Аудио кодек: AC-3
Видео: AVC, High@L4.1, 1920х1080, 23,976 кадра/сек, 8380 Кбит/сек
Аудио:
Rus, AC-3, 6 каналов, 448 Кбит/сек, 48,0 КГц | Дубляж ( BD EUR)
Ukr, AC-3, 6 каналов, 448 Кбит/сек, 48,0 КГц | Дубляж ( BD EUR)
Eng, AC-3, 6 каналов, 640 Кбит/сек, 48,0 КГц
Субтитры: Russian (Forced), Ukrainian (Forced), Russian (Full), Ukrainian (Full), English, английские (SDH / Color)

Скриншоты

Media Info

Код:
Общее
Уникальный идентификатор                 : 247914445477995497538349264303897281294 (0xBA8295DE08C07F5E9177AC25F64D830E)
Полное имя                               : H:\Source\TheGreatGatsby.2013.BD3DRip.Half.OU.x264.AC3.3D-RuGroup.mkv
Формат                                   : Matroska
Версия формата                           : Version 4 / Version 2
Размер файла                             : 10,0 Гбайт
Продолжительность                        : 2 ч. 22 м.
Общий поток                              : 10,1 Мбит/сек
Название фильма                          : The Great Gatsby 3D release 3D-RuGroup
Дата кодирования                         : UTC 2013-09-06 16:25:05
Программа кодирования                    : mkvmerge v6.3.0 ('You can't stop me!') built on Jul 19 2013 16:27:38
Библиотека кодирования                   : libebml v1.3.0 + libmatroska v1.4.1
Видео
Идентификатор                            : 1
Формат                                   : AVC
Формат/Информация                        : Advanced Video Codec
Профиль формата                          : High@L4.1
Параметр CABAC формата                   : Да
Параметр ReFrames формата                : 4 кадра
Идентификатор кодека                     : V_MPEG4/ISO/AVC
Продолжительность                        : 2 ч. 22 м.
Битрейт                                  : 8380 Кбит/сек
Ширина                                   : 1920 пикселей
Высота                                   : 1080 пикселей
Соотношение сторон                       : 16:9
Режим частоты кадров                     : Постоянный
Частота кадров                           : 23,976 кадра/сек
Цветовое пространство                    : YUV
Субдискретизация насыщенности            : 4:2:0
Битовая глубина                          : 8 бит
Тип развёртки                            : Прогрессивная
Бит/(Пиксели*Кадры)                      : 0.169
Размер потока                            : 8,32 Гбайт (83%)
Заголовок                                : The Great Gatsby rip by StarStranger aka itsamna
Библиотека кодирования                   : x264 core 130 r2273 b3065e6
Настройки программы                      : cabac=1 / ref=4 / deblock=1:-3:-3 / analyse=0x3:0x133 / me=umh / subme=10 / psy=1 / psy_rd=1.00:0.15 / mixed_ref=1 / me_range=32 / chroma_me=1 / trellis=2 / 8x8dct=1 / cqm=0 / deadzone=21,11 / fast_pskip=0 / chroma_qp_offset=-3 / threads=12 / lookahead_threads=2 / sliced_threads=0 / nr=0 / decimate=1 / interlaced=0 / bluray_compat=0 / constrained_intra=0 / bframes=7 / b_pyramid=2 / b_adapt=2 / b_bias=0 / direct=3 / weightb=1 / open_gop=0 / weightp=2 / keyint=250 / keyint_min=23 / scenecut=40 / intra_refresh=0 / rc_lookahead=60 / rc=crf / mbtree=1 / crf=18.0 / qcomp=0.60 / qpmin=0 / qpmax=69 / qpstep=4 / vbv_maxrate=50000 / vbv_bufsize=62500 / crf_max=0.0 / nal_hrd=none / ip_ratio=1.40 / aq=1:0.90
Default                                  : Да
Forced                                   : Нет
Аудио #1
Идентификатор                            : 2
Формат                                   : AC-3
Формат/Информация                        : Audio Coding 3
Расширение режима                        : CM (complete main)
Параметр Endianness формата              : Big
Идентификатор кодека                     : A_AC3
Продолжительность                        : 2 ч. 22 м.
Вид битрейта                             : Постоянный
Битрейт                                  : 448 Кбит/сек
Каналы                                   : 6 каналов
Расположение каналов                     : Front: L C R, Side: L R, LFE
Частота                                  : 48,0 КГц
Битовая глубина                          : 16 бит
Метод сжатия                             : С потерями
Размер потока                            : 455 Мбайт (4%)
Заголовок                                : BD EUR
Язык                                     : Russian
Default                                  : Да
Forced                                   : Нет
Аудио #2
Идентификатор                            : 3
Формат                                   : AC-3
Формат/Информация                        : Audio Coding 3
Расширение режима                        : CM (complete main)
Параметр Endianness формата              : Big
Идентификатор кодека                     : A_AC3
Продолжительность                        : 2 ч. 22 м.
Вид битрейта                             : Постоянный
Битрейт                                  : 448 Кбит/сек
Каналы                                   : 6 каналов
Расположение каналов                     : Front: L C R, Side: L R, LFE
Частота                                  : 48,0 КГц
Битовая глубина                          : 16 бит
Метод сжатия                             : С потерями
Размер потока                            : 455 Мбайт (4%)
Заголовок                                : BD EUR
Язык                                     : Ukrainian
Default                                  : Нет
Forced                                   : Нет
Аудио #3
Идентификатор                            : 4
Формат                                   : AC-3
Формат/Информация                        : Audio Coding 3
Расширение режима                        : CM (complete main)
Параметр Endianness формата              : Big
Идентификатор кодека                     : A_AC3
Продолжительность                        : 2 ч. 22 м.
Вид битрейта                             : Постоянный
Битрейт                                  : 640 Кбит/сек
Каналы                                   : 6 каналов
Расположение каналов                     : Front: L C R, Side: L R, LFE
Частота                                  : 48,0 КГц
Битовая глубина                          : 16 бит
Метод сжатия                             : С потерями
Размер потока                            : 650 Мбайт (6%)
Язык                                     : English
Default                                  : Нет
Forced                                   : Нет
Текст #1
Идентификатор                            : 5
Формат                                   : UTF-8
Идентификатор кодека                     : S_TEXT/UTF8
Идентификатор кодека/Информация          : UTF-8 Plain Text
Заголовок                                : SDH / Color
Язык                                     : English
Default                                  : Нет
Forced                                   : Нет
Текст #2
Идентификатор                            : 6
Формат                                   : UTF-8
Идентификатор кодека                     : S_TEXT/UTF8
Идентификатор кодека/Информация          : UTF-8 Plain Text
Заголовок                                : Forced
Язык                                     : Russian
Default                                  : Да
Forced                                   : Нет
Текст #3
Идентификатор                            : 7
Формат                                   : UTF-8
Идентификатор кодека                     : S_TEXT/UTF8
Идентификатор кодека/Информация          : UTF-8 Plain Text
Заголовок                                : Forced
Язык                                     : Ukrainian
Default                                  : Нет
Forced                                   : Нет
Текст #4
Идентификатор                            : 8
Формат                                   : UTF-8
Идентификатор кодека                     : S_TEXT/UTF8
Идентификатор кодека/Информация          : UTF-8 Plain Text
Язык                                     : Russian
Default                                  : Нет
Forced                                   : Нет
Текст #5
Идентификатор                            : 9
Формат                                   : UTF-8
Идентификатор кодека                     : S_TEXT/UTF8
Идентификатор кодека/Информация          : UTF-8 Plain Text
Язык                                     : Ukrainian
Default                                  : Нет
Forced                                   : Нет
Текст #6
Идентификатор                            : 10
Формат                                   : UTF-8
Идентификатор кодека                     : S_TEXT/UTF8
Идентификатор кодека/Информация          : UTF-8 Plain Text
Язык                                     : English
Default                                  : Нет
Forced                                   : Нет
Меню
00:00:00.000                             : :01
00:11:04.080                             : :02
00:22:55.833                             : :03
00:34:26.898                             : :04
00:44:48.728                             : :05
00:55:36.333                             : :06
01:06:20.643                             : :07
01:18:27.786                             : :08
01:31:13.927                             : :09
01:44:11.954                             : :10
01:56:35.155                             : :11
02:05:46.122                             : :12
02:09:40.982                             : :13
--Релиз группы:

Проверено на встроенном плейере ТВ LG 42LW4500
--6.09.2013 - Релиз обновлён - добавлена русская дублированная дорожка BD EUR и пакет субтитров.
Желающие, скачайте заново торрент-файл.
Остальные раздачи этого фильма (4)
Благодарности релизеру (104)

Торрент:

Статус:

Размер:

Зарегистрирован   [ 2013-09-06 20:42 ]

проверено

10.04 GB

 
 Мнение о фильме (113)

Пред.  1, 2, 3, 4, 5, 6  След.






3D одно из лучших, которые видел, без вылетов, но глубина потрясающая
 

СПАСИБО! Очень красивый фильм!
 

Спасибо, и за раздачу и за фильм.
Фильм отличный!
 

Спасибо за красивый фильм хотя нудность присутствует.
 

Не могу понять,скачал 10 фильмов 15 мультфильмов,только 1 фильм и 2 мульт показывает все остальные не открываются на телевизоре PHILIPS 42PFL502BT/60.Подскажите пожайлуста какой формат скачивать,может его нужно с балкона?
 

Фильм очень понравился, ркомендую всем!
 

посмотреть можно
 

Ребят, а кто-нибудь сделает рип фильма в 3Д без обрезов в разрешение, которое пойдет на плеерах? Не больше 1080 в высоту?
 

sSparX, а как насчёт Поиска? http://torrents3d.ru/article/4282/
 

3D очень глубокое и реалистичное. Фильм очень красивый, смотрится на одном дыхании. Концовка огорчила, хотелось хеппи энда.
 

Рад, что посмотрел этот фильм. Масса красивостей, искусно созданных с помощью 3D , хорошо согласуется с содержанием фильма. Спасибо.
 

Прекрасно!
 

Фильм шикарен. Очень красивый антураж и тонкая сюжетная линия. Немного затянут. 3D отличное.
 

Отличный фильм, как собственно и книжный оригинал. 3D отличное. Рекомендую к просмотру.
 

Супер Фильм! Смотрел с женой на 1 дыхании до конца... Спасибо Риперу.
 

СКУКА - тупо красивая картинка .
 

Фильм понравился.
 

один раз посмотреть можно
 

норм
 

Понравился фильм, особенно без чёрных полос, на весь экран. 3Д среднее, но приятное!
 

Страница 4 из 6

Пред.  1, 2, 3, 4, 5, 6  След.