Торренты   
 
 

 

Железный человек 3 в 3Д / Iron Man 3 3D (Шейн Блэк / Shane Black) [2013, фантастика, боевик, приключения, BDrip, 1080p]Full OverUnder / Вертикальная стереопара

Рейтинг 3D:
319 голосов
7.4
Рейтинг фильма:
331 голосов
7.8
 
Вы должны быть авторизированы,
чтобы ставить оценки


(С) Закрыто правообладателем
Железный человек 3 / Iron Man 3
Год выпуска: 2013
Страна: США, Китай
Студия: Paramount Pictures, Marvel Studios Inc.
Жанр: фантастика, боевик, приключения
Продолжительность: 02:10:33
Перевод: Профессиональный (дублированный)
Русские субтитры: нет
Режиссер на русском: Шейн Блэк
Режиссер на английском: Shane Black
В ролях: Роберт Дауни мл., Гвинет Пэлтроу, Дон Чидл, Гай Пирс, Бен Кингсли, Джеймс Бэдж Дэйл, Ребекка Холл, Тай Симпкинс, Уильям Сэдлер, Джон Фавро
Описание: Когда мир Старка рушится на его глазах по вине неизвестных противников, Тони жаждет найти виновных и свести с ними счеты. Оказавшись в безвыходной ситуации, Старк может рассчитывать только на себя и свою изобретательность, чтобы защитить тех, кто ему дорог. Это становится настоящим испытанием для героя, которому придется не только сражаться с коварным врагом, но и разобраться в себе, чтобы найти ответ на вопрос, который давно его тревожит: что важнее - человек или костюм?
Сэмпл : http://www.sendspace.com/file/0wygkd
Качество: BDrip
Контейнер: MKV
Формат 3D: OverUnder / Вертикальная стереопара
Порядок ракурсов: левый ракурс первый
Видео кодек: x264
Аудио кодек: AC3
Видео: AVC / High@L5.0 / 23,976 fps / 1920х1600 / 9217 Кбит/сек
Аудио: Русский / AC3 / 48 KHz / 5.1 ch / 640 Кбит/сек
Аудио 2: Английский / AC3 / 48 KHz / 5.1 ch / 640 Кбит/сек
Релиз группы: ВНИМАНИЕ ! На встроенных ТВ-плеерах работать не будет!!!
Железные плееры на которых воспроизводятся полные стереопары:Popcorn C-200 , Dune HD Smart D1 , Dune HD DUO , Dune HD Smart H1 , Dune HD Smart B1 , Dune HD Max , Dune HD TV-303D , Dune HD Base 3D

MediaInfo

General
Unique ID : 221809337492682018713931591366693159273 (0xA6DEECAC2CD9F5BE98DB5A956E550169)
Complete name : E:\закачки\Iron Man 3.Rip by SeRoGa00.mkv
Format : Matroska
Format version : Version 2
File size : 9.77 GiB
Duration : 2h 10mn
Overall bit rate : 10.7 Mbps
Encoded date : UTC 2013-08-23 01:17:37
Writing application : mkvmerge v3.4.0 ('Rapunzel') сборка от May 15 2010 09:38:20
Writing library : libebml v0.8.0 + libmatroska v0.9.0
Video
ID : 1
Format : AVC
Format/Info : Advanced Video Codec
Format profile : High@L5.0
Format settings, CABAC : Yes
Format settings, ReFrames : 4 frames
Codec ID : V_MPEG4/ISO/AVC
Duration : 2h 10mn
Bit rate : 9 217 Kbps
Width : 1 920 pixels
Height : 1 600 pixels
Display aspect ratio : 1.200
Frame rate mode : Constant
Frame rate : 23.976 fps
Color space : YUV
Chroma subsampling : 4:2:0
Bit depth : 8 bits
Scan type : Progressive
Bits/(Pixel*Frame) : 0.125
Stream size : 8.40 GiB (86%)
Title : Rip by SeRoGa00
Writing library : x264 core 128 r2216kMod 198a7ea
Encoding settings : cabac=1 / ref=4 / deblock=1:-3:-3 / analyse=0x3:0x113 / me=umh / subme=9 / psy=1 / fade_compensate=0.00 / psy_rd=1.00:0.15 / mixed_ref=1 / me_range=16 / chroma_me=1 / trellis=2 / 8x8dct=1 / cqm=0 / deadzone=21,11 / fast_pskip=1 / chroma_qp_offset=-3 / threads=9 / lookahead_threads=1 / sliced_threads=0 / nr=0 / decimate=1 / interlaced=0 / bluray_compat=0 / constrained_intra=0 / bframes=6 / b_pyramid=2 / b_adapt=2 / b_bias=0 / direct=3 / weightb=1 / open_gop=0 / weightp=2 / keyint=250 / keyint_min=23 / scenecut=40 / intra_refresh=0 / rc_lookahead=60 / rc=crf / mbtree=1 / crf=18.0000 / qcomp=0.60 / qpmin=10 / qpmax=69 / qpstep=4 / vbv_maxrate=40000 / vbv_bufsize=40000 / crf_max=0.0 / nal_hrd=none / ip_ratio=1.40 / aq=1:1.00
Language : English
Default : No
Forced : No
Audio #1
ID : 2
Format : AC-3
Format/Info : Audio Coding 3
Mode extension : CM (complete main)
Format settings, Endianness : Big
Codec ID : A_AC3
Duration : 2h 10mn
Bit rate mode : Constant
Bit rate : 640 Kbps
Channel(s) : 6 channels
Channel positions : Front: L C R, Side: L R, LFE
Sampling rate : 48.0 KHz
Bit depth : 16 bits
Compression mode : Lossy
Stream size : 598 MiB (6%)
Language : Russian
Default : Yes
Forced : No
Audio #2
ID : 3
Format : AC-3
Format/Info : Audio Coding 3
Mode extension : CM (complete main)
Format settings, Endianness : Big
Codec ID : A_AC3
Duration : 2h 10mn
Bit rate mode : Constant
Bit rate : 640 Kbps
Channel(s) : 6 channels
Channel positions : Front: L C R, Side: L R, LFE
Sampling rate : 48.0 KHz
Bit depth : 16 bits
Compression mode : Lossy
Stream size : 598 MiB (6%)
Language : English
Default : No
Forced : No

Скриншоты


Остальные раздачи этого фильма (3)
Благодарности релизеру (20)

Торрент:

Статус:

Размер:

Зарегистрирован   [ 2013-08-23 05:49 ]

© закрыто правообладателем

9.77 GB

 
 Мнение о фильме (86)

1, 2, 3, 4, 5  След.






В 3D не смотрел, но но посмотрел в хорошем 2д. Лучше второй части уж точно, и может быть лучше первой. Есть тут даже элементы пародии на самих себя - про террористов, например. И вообще много интересных деталей и меньше пафоса.
Самый главный минус - это мотивация злодея - а ведь это главный двигатель сюжета. Там такую кашу намешали, что сами актеры наверное не понимали что они играют. И тема со способностью к раскалению - это уже не научфан, а фентези какое-то.
 

Смотрел в кинотеатре. Теперь посмотрю по 3д телеку.
 
Виталий Цыганов Профиль 23-Авг-2013 14:34

Смотрел в кинотеатре в 3D с женой и друзьями, все вышли просто в восторге, фильм просто шикарен, Роберт Дауни Младший как всегда на высоте. Очень ждал когда появится в 3D для телика, чтобы пересмотреть еще несколько раз.
 

Как вылеты,кто посмотрел отпишитесь...
 

А филм то снимали в 2Д и потом конверсию зделали. Знал б что так быстро на 3Д вставили на саит... сегодня толко скачал на 2Д :D
Простите за плоха изученый руский яазык.
 

по мне фильм никакой и одного просмотра больше чем достаточно )
 

В двух словах мое мнение:
3D слабовато, фильм хороший (экшн, юмор, сюжет).
 

Спасибо за раздачу! Фильм так себе, из 3Д эффектов разве, что летающий пепел. Несколько затянуто и больше похоже на самоиронию.
 

Dag13, Давно ждем,благодарю и вечером посмотрим ! А скорость в норме,как обыч.1.4мгб.
 

фильм нормальный(начало затянутое) 3д слабое.прикололо,что в фильме бен кингсли очень похож на вассермана(знатока)
 

Блин, уселся посмотреть фильм и такой облом. Разве никого не смущает что картинка расстанута при 16:9? А при остальных соотношениях 3д кривое. Я в чем-то туплю или Вам всем реально нравится смотреть на "яйцеголовых" :))
 

я ожидал от фильма большего.3д-слабое.
 

Если посмотреть в 2Д ничего не потеряете. Кино в основном весёлое. Смотреть можно.
 

За такие бабки могли и лучше 3Д вытянуть.
 

Господа!!!По мему вы слегка зажрались!!!:)Для коверта тем более такого оперативного объем очень не плохой!!!!Смотрел на проекторе!Релизеру и емуже риперу низкий поклон за работу!!!Тем более что это мой любимый ...релизер!!!:))))
 

Зря говорят, что в 2D можно посмотреть "ничего не потеряете".
Хотя в принципе я видел 3D и лучше, но фильм отличный: хорошие эффекты, органичный сценарий, смотрится с удовольствием.
 

Спасибо за скорость и раздачу!!! посмотрим отпишусь.
 

3D никакое,сам фиьм хорош
 

фильм фентези-бредятина , мульт "IM :восстание техновора" поумнее будет . фильму нехватает ядренного антигероя и саундтрека от AC/DC
 

Отличное качество. Спасибо.
 

Страница 1 из 5

1, 2, 3, 4, 5  След.