Торренты   
 
 

 

Железный человек 3 / Iron Man 3 (Шейн Блэк) [2013 г., BDrip, Anamorph OverUnder]

Рейтинг 3D:
319 голосов
7.4
Рейтинг фильма:
331 голосов
7.8
 
Вы должны быть авторизированы,
чтобы ставить оценки


© Зкрыто правообладателем
Год выпуска: 2013
Страна: США, Китай (Marvel Studios, Paramount Pictures, DMG Entertainment)
Жанр: фантастика, боевик, приключения
Продолжительность: 02:10:33
Перевод: Профессиональный (полное дублирование)
Режиссер: Шейн Блэк
В ролях: Роберт Дауни мл., Гвинет Пэлтроу, Дон Чидл, Гай Пирс, Бен Кингсли, Джеймс Бэдж Дэйл, Ребекка Холл, Тай Симпкинс, Уильям Сэдлер, Джон Фавро
Описание: Когда мир Старка рушится на его глазах по вине неизвестных противников, Тони жаждет найти виновных и свести с ними счеты. Оказавшись в безвыходной ситуации, Старк может рассчитывать только на себя и свою изобретательность, чтобы защитить тех, кто ему дорог. Это становится настоящим испытанием для героя, которому придется не только сражаться с коварным врагом, но и разобраться в себе, чтобы найти ответ на вопрос, который давно его тревожит: что важнее — человек или костюм?
Качество: BDrip
Контейнер: MKV
Формат 3D: Anamorph OverUnder / Вертикальная анаморфная стереопара
Видео кодек: x264
Аудио кодек: AC-3
Видео: AVC, High@L4.1, 1920х1080, 23,976 кадра/сек, 7415 Кбит/сек
Аудио:
#1 - Русский / AC3 / 48 KHz / 5.1 ch / 640 Кбит/сек (Дубляж - BD 3D)
#2 - Украинский / AC3 / 48 KHz / 2.0 ch / 192 Кбит/сек (Дубляж - iTunes)
#3 - Английский / AC3 / 48 KHz / 5.1 ch / 640 Кбит/сек (Original)
Субтитры:
#1 - Русские Форсированные
#2 - Русские Полные
#3 - Русские Комментарии авторов
#4 - Украинские Форсированные
#5 - Украинские Полные
#6 - English Full
#7 - English SDH

Скриншоты

Media Info

Код:
Общее
Уникальный идентификатор                 : 192900532077359419833188273042833771825 (0x911F4A85A2732104B01884485A278D31)
Полное имя                               : D:\IronMan.3.3D.2013.BD3DRip.Half.OU.x264.AC3.3D-RuGroup.mkv
Формат                                   : Matroska
Версия формата                           : Version 2
Размер файла                             : 8,27 Гбайт
Продолжительность                        : 2 ч. 10 м.
Общий поток                              : 9067 Кбит/сек
Название фильма                          : Iron Man 3 (2013) 3D release 3D-RuGroup
Дата кодирования                         : UTC 2013-08-23 04:50:29
Программа кодирования                    : mkvmerge v3.4.0 ('Rapunzel') сборка от May 15 2010 09:38:20
Библиотека кодирования                   : libebml v0.8.0 + libmatroska v0.9.0
Видео
Идентификатор                            : 1
Формат                                   : AVC
Формат/Информация                        : Advanced Video Codec
Профиль формата                          : High@L4.1
Параметр CABAC формата                   : Да
Параметр ReFrames формата                : 4 кадра
Идентификатор кодека                     : V_MPEG4/ISO/AVC
Продолжительность                        : 2 ч. 10 м.
Битрейт                                  : 7415 Кбит/сек
Ширина                                   : 1920 пикселей
Высота                                   : 1080 пикселей
Соотношение сторон                       : 16:9
Режим частоты кадров                     : Постоянный
Частота кадров                           : 23,976 кадра/сек
Цветовое пространство                    : YUV
Субдискретизация насыщенности            : 4:2:0
Битовая глубина                          : 8 бит
Тип развёртки                            : Прогрессивная
Бит/(Пиксели*Кадры)                      : 0.149
Размер потока                            : 6,76 Гбайт (82%)
Заголовок                                : rip by StarStranger aka itsamna
Библиотека кодирования                   : x264 core 130 r2273 b3065e6
Настройки программы                      : cabac=1 / ref=4 / deblock=1:-3:-3 / analyse=0x3:0x133 / me=umh / subme=10 / psy=1 / psy_rd=1.00:0.15 / mixed_ref=1 / me_range=32 / chroma_me=1 / trellis=2 / 8x8dct=1 / cqm=0 / deadzone=21,11 / fast_pskip=0 / chroma_qp_offset=-3 / threads=12 / lookahead_threads=2 / sliced_threads=0 / nr=0 / decimate=1 / interlaced=0 / bluray_compat=0 / constrained_intra=0 / bframes=7 / b_pyramid=2 / b_adapt=2 / b_bias=0 / direct=3 / weightb=1 / open_gop=0 / weightp=2 / keyint=250 / keyint_min=23 / scenecut=40 / intra_refresh=0 / rc_lookahead=60 / rc=crf / mbtree=1 / crf=15.0 / qcomp=0.60 / qpmin=0 / qpmax=69 / qpstep=4 / vbv_maxrate=50000 / vbv_bufsize=62500 / crf_max=0.0 / nal_hrd=none / ip_ratio=1.40 / aq=1:0.90
Default                                  : Да
Forced                                   : Нет
Аудио #1
Идентификатор                            : 2
Формат                                   : AC-3
Формат/Информация                        : Audio Coding 3
Расширение режима                        : CM (complete main)
Параметр Endianness формата              : Big
Идентификатор кодека                     : A_AC3
Продолжительность                        : 2 ч. 10 м.
Вид битрейта                             : Постоянный
Битрейт                                  : 640 Кбит/сек
Каналы                                   : 6 каналов
Расположение каналов                     : Front: L C R, Side: L R, LFE
Частота                                  : 48,0 КГц
Битовая глубина                          : 16 бит
Метод сжатия                             : С потерями
Размер потока                            : 598 Мбайт (7%)
Заголовок                                : Дубляж - BD 3D
Язык                                     : Russian
Default                                  : Нет
Forced                                   : Нет
Аудио #2
Идентификатор                            : 3
Формат                                   : AC-3
Формат/Информация                        : Audio Coding 3
Расширение режима                        : CM (complete main)
Параметр Endianness формата              : Big
Идентификатор кодека                     : A_AC3
Продолжительность                        : 2 ч. 10 м.
Вид битрейта                             : Постоянный
Битрейт                                  : 192 Кбит/сек
Каналы                                   : 2 канала
Расположение каналов                     : Front: L R
Частота                                  : 48,0 КГц
Битовая глубина                          : 16 бит
Метод сжатия                             : С потерями
Размер потока                            : 179 Мбайт (2%)
Заголовок                                : Дубляж - iTunes
Язык                                     : Ukrainian
Default                                  : Нет
Forced                                   : Нет
Аудио #3
Идентификатор                            : 4
Формат                                   : AC-3
Формат/Информация                        : Audio Coding 3
Расширение режима                        : CM (complete main)
Параметр Endianness формата              : Big
Идентификатор кодека                     : A_AC3
Продолжительность                        : 2 ч. 10 м.
Вид битрейта                             : Постоянный
Битрейт                                  : 640 Кбит/сек
Каналы                                   : 6 каналов
Расположение каналов                     : Front: L C R, Side: L R, LFE
Частота                                  : 48,0 КГц
Битовая глубина                          : 16 бит
Метод сжатия                             : С потерями
Размер потока                            : 598 Мбайт (7%)
Заголовок                                : Original
Язык                                     : English
Default                                  : Нет
Forced                                   : Нет
Текст #1
Идентификатор                            : 5
Формат                                   : UTF-8
Идентификатор кодека                     : S_TEXT/UTF8
Идентификатор кодека/Информация          : UTF-8 Plain Text
Заголовок                                : Форсированные
Язык                                     : Russian
Default                                  : Нет
Forced                                   : Нет
Текст #2
Идентификатор                            : 6
Формат                                   : UTF-8
Идентификатор кодека                     : S_TEXT/UTF8
Идентификатор кодека/Информация          : UTF-8 Plain Text
Заголовок                                : Полные
Язык                                     : Russian
Default                                  : Да
Forced                                   : Нет
Текст #3
Идентификатор                            : 7
Формат                                   : UTF-8
Идентификатор кодека                     : S_TEXT/UTF8
Идентификатор кодека/Информация          : UTF-8 Plain Text
Заголовок                                : Комментарии
Язык                                     : Russian
Default                                  : Нет
Forced                                   : Нет
Текст #4
Идентификатор                            : 8
Формат                                   : UTF-8
Идентификатор кодека                     : S_TEXT/UTF8
Идентификатор кодека/Информация          : UTF-8 Plain Text
Заголовок                                : Форсированные
Язык                                     : Ukrainian
Default                                  : Нет
Forced                                   : Нет
Текст #5
Идентификатор                            : 9
Формат                                   : UTF-8
Идентификатор кодека                     : S_TEXT/UTF8
Идентификатор кодека/Информация          : UTF-8 Plain Text
Заголовок                                : Полные
Язык                                     : Ukrainian
Default                                  : Нет
Forced                                   : Нет
Текст #6
Идентификатор                            : 10
Формат                                   : UTF-8
Идентификатор кодека                     : S_TEXT/UTF8
Идентификатор кодека/Информация          : UTF-8 Plain Text
Заголовок                                : Полные
Язык                                     : English
Default                                  : Нет
Forced                                   : Нет
Текст #7
Идентификатор                            : 11
Формат                                   : UTF-8
Идентификатор кодека                     : S_TEXT/UTF8
Идентификатор кодека/Информация          : UTF-8 Plain Text
Заголовок                                : SDH
Язык                                     : English
Default                                  : Нет
Forced                                   : Нет
Меню
00:00:00.000                             : :1. New Year's Eve, 1999
00:04:52.751                             : :2. R60 Department
00:07:55.433                             : :3. The Mandarin
00:12:12.440                             : :4. Killian Returns
00:19:04.101                             : :5. Tony & Pepper at Home
00:23:47.885                             : :6. Happy Follows Savin
00:29:47.703                             : :7. House Attack
00:39:46.384                             : :8. Rose Hill, Tennessee
00:45:56.045                             : :9. Unraveling the Past
00:59:19.639                             : :10. The Mandarin Teaches a Lesson
01:01:56.922                             : :11. Tony Hacks A.I.M.
01:09:24.452                             : :12. Locating the Mandarin
01:18:41.508                             : :13. Captured by Killian
01:23:52.945                             : :14. Attack on Air Force One
01:37:55.995                             : :15. Showdown at the Docks
01:56:18.305                             : :16. New Beginnings
01:59:38.755                             : :17. End Credits
--Релиз группы:

Проверено на встроенном плейере ТВ LG 42LW4500
--
Остальные раздачи этого фильма (3)
Благодарности релизеру (52)

Торрент:

Статус:

Размер:

Зарегистрирован   [ 2013-08-23 09:44 ]

© закрыто правообладателем

8.27 GB

 
 Мнение о фильме (86)

Пред.  1, 2, 3, 4, 5  След.






3д-неплохое.Сам фильм - видели и получше.На один раз.
 

согласен с многими фильм как всегда класный с=часто прикольный правда в этой серии уже мистики нереальной добавили много!!! но 3д вообще ниочем!!!!
 

Спасибо-отличное качество.Спасибо за труд.Огромное СПАСИБО!!!!
 

Норм фильмец)
 

Огромное спасибо. Посмотрю с удовольствием.
 
Алексей Вахляев Профиль 26-Авг-2013 14:07

Фильм ни о чём, сюжет для детей. 3D ничего.
 

Спасибо!!! НЕ знаю как всем а мне понравилось 3д на вылет.
 

не могу поставить оценку фильма на экране банер закрывает оценку.
 

Фильм оказался довольно интересным и с хорошим 3D, но из-за обрезки некоторые дальние сцены по углам начинают раздваиваться, а может это не от нее, но эффект неприятный. А за раздачу спасибо, давно ждал в хорошем качестве!!
 

3д слабовато...Фильм юморной...Но второй раз, а тем более в 3д- это врядли...
 

фильм немного затянут , 3д нормальное , лучше 2 части , стоит посмотреть один раз и составить собственное мнение , релизерам как всегда огромное спасибо !
 
евгения мурашко Профиль 27-Авг-2013 12:32

Alexs45, Addblock пробовали?
 

На мой взгляд третья часть посредственна. Она конечно не хуже двух предыдущих, но и ни чего нового в ней нет, а раз нет нового ,то выглядит как то блекловато на фоне предыдущих частей. И 3д (даже без черных полос)как то не добавило ей зрелищности.Кто то в коментариях сказал ,что просмотрев этот фильм в 2д ни чего не потеряете .Я с этим соглашусь. Единственный плюс третьей части это то ,что это лучшее продолжение за последнее время. Бросок кобры 2 , крепкий орешек 5 , сайлен хил 2, обитель зла на мой взгляд сильно уступают Железному человеку 3.
 

Спасибо за фильм, качество супер!
 

Фильм очень понравился внуку. 3D усилило эффект при демонстрации костюмов и антуража. Меня утомила большая динамичность сцен (мелькания на экране). Благодарю за раздачу.
 

Спасибо за релиз но фильм на любителя . 3д обычное ничего выдающегося
 

Фильм хорош, как и две предыдущие части. 3d на среднем уровне.
 

Тем, кому понравились предыдущие части, эта тоже должна понравиться.
 

Очень хорошо отдохнул!Спасибо!
 

Сюжет слабый. 3Д весьма посредственное. Дело на мой взгляд в том, что из актерской группы убрали многих неплохих актеров, и сценарий потерял харизму. К тому же первые 2 части были более юморные, местами конечно.
 

Страница 2 из 5

Пред.  1, 2, 3, 4, 5  След.