Торренты   
 
 


Храбрый плавник / Back to the Sea (Том Лу) [2012 г., BDrip, Anamorph OverUnder]

Рейтинг 3D:
8 голосов
6.0
Рейтинг фильма:
8 голосов
6.5
 
Вы должны быть авторизированы,
чтобы ставить оценки



Храбрый плавник / Back to the Sea
Год выпуска: 2012
Страна: Китай, Канада
Жанр: мультфильм, комедия
Продолжительность: 01:37:37
Перевод: Профессиональный (полное дублирование)
Режиссер: Том Лу
В ролях: Юрий Ловенталь (Kevin), Кэт Сауси (Shaobao), Том Кенни (Ben), Марк Хэмилл (Bunker), Мэттью Кинг (Dabao), Тим Карри (Eric), Кристиан Слэйтер (Jack), Тара Стронг (Sammy), Джеймс Си (Cook Liu), Энни Мумоло (Danny)
Описание: В прибрежных водах Нью-Йорка живет Кевин — маленькая летучая рыбка. Каждый день Кевин играет со своими друзьями и мечтает попасть на остров Барбадос, в королевство летучих рыб, но его родители считают эти мечты глупыми.
Однажды, чтобы похвастаться, он отправляется к подводной Скале Славы, достать фамильную реликвию семьи — огромную жемчужину, и попадает в рыболовные сети. Кевин вместе с драгоценностью отправляется в аквариум рыбного ресторанчика, где его ждет страшная судьба — стать изысканным деликатесом. Другие обитатели аквариума верят в то, что исчезающие рыбы становятся людьми, поэтому ждут с нетерпением, когда за ними придут. Для того, чтобы спасти своих новых друзей от смерти и вернуться домой с фамильной жемчужиной, Кевину предстоит показать всю свою храбрость.
Формат 3D: Anamorph OverUnder
Видео: AVC, High@L4.1, 1920х1080, 23,976 кадра/сек, 2950 Кбит/сек
Аудио: Русский / AC3 / 48 KHz / 5.1 ch / 640 Кбит/сек (Дубляж - BD 3D)
Субтитры: отсутствуют

Скриншоты

Media Info

Общее
Уникальный идентификатор : 253499819316038167624032826133993734950 (0xBEB64A0F063249DF8B88D35B2C2BC326)
Полное имя : H:\BackToTheSea.3D.2012.BD3DRip.Half.OU.x264.AC3.3D-RuGroup.mkv
Формат : Matroska
Версия формата : Version 2
Размер файла : 2,50 Гбайт
Продолжительность : 1 ч. 37 м.
Общий поток : 3663 Кбит/сек
Название фильма : Back to the Sea (2012) 3D release 3D-RuGroup
Дата кодирования : UTC 2013-08-24 09:08:52
Программа кодирования : mkvmerge v3.4.0 ('Rapunzel') сборка от May 15 2010 09:38:20
Библиотека кодирования : libebml v0.8.0 + libmatroska v0.9.0
Видео
Идентификатор : 1
Формат : AVC
Формат/Информация : Advanced Video Codec
Профиль формата : High@L4.1
Параметр CABAC формата : Да
Параметр ReFrames формата : 4 кадра
Идентификатор кодека : V_MPEG4/ISO/AVC
Продолжительность : 1 ч. 37 м.
Битрейт : 2950 Кбит/сек
Ширина : 1920 пикселей
Высота : 1080 пикселей
Соотношение сторон : 16:9
Режим частоты кадров : Постоянный
Частота кадров : 23,976 кадра/сек
Цветовое пространство : YUV
Субдискретизация насыщенности : 4:2:0
Битовая глубина : 8 бит
Тип развёртки : Прогрессивная
Бит/(Пиксели*Кадры) : 0.059
Размер потока : 2,01 Гбайт (81%)
Заголовок : rip by StarStranger aka itsamna
Библиотека кодирования : x264 core 130 r2273 b3065e6
Настройки программы : cabac=1 / ref=4 / deblock=1:-3:-3 / analyse=0x3:0x133 / me=umh / subme=9 / psy=1 / psy_rd=0.80:0.00 / mixed_ref=1 / me_range=32 / chroma_me=1 / trellis=2 / 8x8dct=1 / cqm=0 / deadzone=21,11 / fast_pskip=0 / chroma_qp_offset=-2 / threads=12 / lookahead_threads=2 / sliced_threads=0 / nr=0 / decimate=1 / interlaced=0 / bluray_compat=0 / constrained_intra=0 / bframes=7 / b_pyramid=2 / b_adapt=2 / b_bias=0 / direct=3 / weightb=1 / open_gop=0 / weightp=2 / keyint=250 / keyint_min=23 / scenecut=40 / intra_refresh=0 / rc_lookahead=60 / rc=crf / mbtree=1 / crf=17.0 / qcomp=0.60 / qpmin=0 / qpmax=69 / qpstep=4 / vbv_maxrate=50000 / vbv_bufsize=62500 / crf_max=0.0 / nal_hrd=none / ip_ratio=1.40 / aq=1:0.90
Default : Да
Forced : Нет
Аудио
Идентификатор : 2
Формат : AC-3
Формат/Информация : Audio Coding 3
Расширение режима : CM (complete main)
Параметр Endianness формата : Big
Идентификатор кодека : A_AC3
Продолжительность : 1 ч. 37 м.
Вид битрейта : Постоянный
Битрейт : 640 Кбит/сек
Каналы : 6 каналов
Расположение каналов : Front: L C R, Side: L R, LFE
Частота : 48,0 КГц
Битовая глубина : 16 бит
Метод сжатия : С потерями
Размер потока : 447 Мбайт (17%)
Язык : Russian
Default : Да
Forced : Нет
Меню
00:00:00.000 : :01
00:08:07.696 : :02
00:15:50.575 : :03
00:25:56.555 : :04
00:33:57.410 : :05
00:43:59.470 : :06
00:53:36.088 : :07
01:01:41.114 : :08
01:12:57.832 : :09
01:23:23.916 : :10
01:32:22.036 : :11
--Релиз группы:

Проверено на встроенном плейере ТВ LG 42LW4500
--
Остальные раздачи этого фильма (2)
Благодарности релизеру (5)

Торрент:

Статус:

Размер:

Зарегистрирован   [ 2013-08-24 13:28 ]

проверено

2.5 GB

 
 Мнение о фильме (2)





Спасибо за оперативность,да еще и звук в норме,но от мультика не в восторге.Не потому что не нравится,а потому что повторяется.Посмотрели уже,\Шевели ластами\,Риф\В поисках Немо\ Хочется чего то нового.Ладно,если бы создано было, еще лучше.Это чисто мое мнение,оно может расходится с мнением многих.
 

от мультика я мягко говоря не в восторге...прорисовка неудачная...все остальное -на слабую тройку