Торренты   
 
 

 

Мадагаскар 3D / Madagascar 3D [2013, BDRip, half1080p, Anamorph OverUnder]

Рейтинг 3D:
18 голосов
8.7
Рейтинг фильма:
18 голосов
7.8
 
Вы должны быть авторизированы,
чтобы ставить оценки


Мадагаскар 3D
Madagascar 3D

Год выпуска: 2013
Страна: Германия (Los Banditos Films)
Жанр: Документальный
Продолжительность: 00:46:58
Перевод: Профессиональный (дублированный)
Режиссер: Timo Joh. Mayer
Описание: Мадагаскар — одно из самых удивительных мест нашей планеты. Его местоположение на карте мира, длительная географическая обособленность, способствовали формированию уникальной флоры и фауны. Многочисленные эндемичные растения и животные составляют визитную карточку острова. Благодаря малочисленной популяции хищников, обезьян и ядовитых змей, некоторые его обитатели эволюционировали совершенно удивительным образом. К их числу относятся лемуры.-Релиз на Blu-Ray: 14 августа 2013
. .
-Качество: BDRip (by Ash61)
Контейнер: MKV
Формат 3D: Anamorph OverUnder / Вертикальная анаморфная стереопара
Порядок ракурсов: левый ракурс первый-Видео: AVC / 23,976 fps / 1920х1080p / 21.6 Mbps
Аудио:
#1 - Русский / AC3 / 48 KHz / 5.1 ch / 640 Kbps (Дубляж - BD 3D Rus)
#2 - Английский / AC3 / 48 KHz / 5.1 ch / 640 Kbps
Субтитры: Отсутствуют

MediaInfo

General
Unique ID : 253585709108577134153133235344309105916 (0xBEC6D4C09DB6B92E9335A37F8C9634FC)
Complete name : E:\Downloads\Madagascar(3D-halfOU)2013(Ash61).mkv
Format : Matroska
Format version : Version 2
File size : 7.65 GiB
Duration : 46mn 57s
Overall bit rate : 23.3 Mbps
Movie name : Мадагаскар / Madagascar (3D) 2013
Encoded date : UTC 2013-08-25 06:30:40
Writing application : mkvmerge v5.8.0 ('No Sleep / Pillow') built on Sep 2 2012 15:37:04
Writing library : libebml v1.2.3 + libmatroska v1.3.0
Video
ID : 1
Format : AVC
Format/Info : Advanced Video Codec
Format profile : High@L4.1
Format settings, CABAC : Yes
Format settings, ReFrames : 4 frames
Codec ID : V_MPEG4/ISO/AVC
Duration : 46mn 57s
Bit rate : 21.6 Mbps
Width : 1 920 pixels
Height : 1 080 pixels
Display aspect ratio : 16:9
Frame rate mode : Constant
Frame rate : 23.976 fps
Color space : YUV
Chroma subsampling : 4:2:0
Bit depth : 8 bits
Scan type : Progressive
Bits/(Pixel*Frame) : 0.434
Stream size : 7.08 GiB (93%)
Title : BDRip by Ash61
Writing library : x264 core 129 r2245 bc13772
Encoding settings : cabac=1 / ref=4 / deblock=1:-1:-1 / analyse=0x3:0x113 / me=umh / subme=9 / psy=1 / psy_rd=1.00:0.15 / mixed_ref=1 / me_range=32 / chroma_me=1 / trellis=2 / 8x8dct=1 / cqm=0 / deadzone=21,11 / fast_pskip=1 / chroma_qp_offset=-3 / threads=12 / lookahead_threads=2 / sliced_threads=0 / nr=0 / decimate=1 / interlaced=0 / bluray_compat=0 / constrained_intra=0 / bframes=8 / b_pyramid=2 / b_adapt=2 / b_bias=0 / direct=3 / weightb=1 / open_gop=0 / weightp=2 / keyint=250 / keyint_min=23 / scenecut=40 / intra_refresh=0 / rc_lookahead=60 / rc=crf / mbtree=1 / crf=18.0 / qcomp=0.70 / qpmin=10 / qpmax=69 / qpstep=4 / vbv_maxrate=40000 / vbv_bufsize=30000 / crf_max=0.0 / nal_hrd=none / frame-packing=4 / ip_ratio=1.40 / aq=1:0.70
Language : German
Default : Yes
Forced : No
Audio #1
ID : 2
Format : AC-3
Format/Info : Audio Coding 3
Mode extension : CM (complete main)
Format settings, Endianness : Big
Codec ID : A_AC3
Duration : 46mn 57s
Bit rate mode : Constant
Bit rate : 640 Kbps
Channel(s) : 6 channels
Channel positions : Front: L C R, Side: L R, LFE
Sampling rate : 48.0 KHz
Bit depth : 16 bits
Compression mode : Lossy
Stream size : 215 MiB (3%)
Title : Дубляж - BD 3D
Language : Russian
Default : Yes
Forced : No
Audio #2
ID : 3
Format : AC-3
Format/Info : Audio Coding 3
Mode extension : CM (complete main)
Format settings, Endianness : Big
Codec ID : A_AC3
Duration : 46mn 57s
Bit rate mode : Constant
Bit rate : 640 Kbps
Channel(s) : 6 channels
Channel positions : Front: L C R, Side: L R, LFE
Sampling rate : 48.0 KHz
Bit depth : 16 bits
Compression mode : Lossy
Stream size : 215 MiB (3%)
Language : English
Default : No
Forced : No
Menu
00:00:00.000 : :1
00:06:08.410 : :2
00:12:00.011 : :3
00:17:41.310 : :4
00:22:29.223 : :5
00:28:54.650 : :6
00:35:14.738 : :7
00:41:40.998 : :8

Для оценки 3Д - Анимированные скрины















Благодарности релизеру (37)

Торрент:

Статус:

Размер:

Зарегистрирован   [ 2013-08-25 18:53 ]

проверено

7.65 GB

 
 Мнение о фильме (7)





эфект 3д отличный
 

фильм интересный. 3д впечатляет.
 

Фильм очень интересный. 3D на уровне и смотрится прекрасно! Спасибо!
 

спасибо-класс!!!!
 

фильм понравился 3Д просто супер!!!
 

Спасибо! Посмотрели с удовольствием.
 

Фильм хороший, 3Д тоже на высоте, но временами на картинке заметны артефакты, бывает что часть картинки как будто не на камеру снята, а написана масляными красками если присмотреться. Возможно это только у меня.