Торренты   
 
 

 

Жизнь: Вода – основа жизни / Life 3D - Water, the Element of Life [2012, BDRip, half1080p, Anamorph OverUnder]

Рейтинг 3D:
24 голосов
7.5
Рейтинг фильма:
25 голосов
7.3
 
Вы должны быть авторизированы,
чтобы ставить оценки


Жизнь: Вода – основа жизни
Life 3D - Water, the Element of Life

Год выпуска: 2012
Страна: Германия (Power Pictures)
Жанр: Документальный
Продолжительность: 00:52:50
Перевод: Профессиональный (дублированный)
Режиссер: Attila Tenki
Описание: Вода — уникальное вещество, без которого жизнь на нашей планете была бы невозможной. Моря и океаны, реки и озера являются единым организмом и играют важную роль в природе. Вода — словно посредник между жизнью и смертью, активно влияющий на судьбу Земли, питающий ее, защищающий от целого ряда неблагоприятных факторов. О том, как важно бережно относится к водным ресурсам, которые, к сожалению, отнюдь не бесконечны, и снят этот увлекательный и познавательный фильм в формате 3D.-Премьера: 5 июля 2013
Релиз на Blu-Ray (DVD): 21 августа 2013 (19 сентября 2013)

. .
-Качество: BDRip (by Ash61)
Контейнер: MKV
Формат 3D: Anamorph OverUnder / Вертикальная анаморфная стереопара
Порядок ракурсов: левый ракурс первый-Видео: AVC / 23,976 fps / 1920х1080p / 20.6 Mbps
Аудио:
#1 - Русский / AC3 / 48 KHz / 5.1 ch / 640 Kbps (Дубляж - BD 3D Rus)
#2 - Английский / AC3 / 48 KHz / 5.1 ch / 640 Kbps
Субтитры: Отсутствуют

MediaInfo

General
Unique ID : 170507408545834849416765413815856728299 (0x8046884A700D04388DBC378B257108EB)
Complete name : E:\Downloads\Life.Water,TheElementOfLife(3D-halfOU)2012(Ash61).mkv
Format : Matroska
Format version : Version 2
File size : 8.25 GiB
Duration : 52mn 50s
Overall bit rate : 22.4 Mbps
Movie name : Жизнь: Вода – основа жизни / Life 3D - Water, the Element of Life (3D) 2012
Encoded date : UTC 2013-08-25 06:40:30
Writing application : mkvmerge v5.8.0 ('No Sleep / Pillow') built on Sep 2 2012 15:37:04
Writing library : libebml v1.2.3 + libmatroska v1.3.0
Video
ID : 1
Format : AVC
Format/Info : Advanced Video Codec
Format profile : High@L4.1
Format settings, CABAC : Yes
Format settings, ReFrames : 4 frames
Codec ID : V_MPEG4/ISO/AVC
Duration : 52mn 50s
Bit rate : 20.6 Mbps
Width : 1 920 pixels
Height : 1 080 pixels
Display aspect ratio : 16:9
Frame rate mode : Constant
Frame rate : 23.976 fps
Color space : YUV
Chroma subsampling : 4:2:0
Bit depth : 8 bits
Scan type : Progressive
Bits/(Pixel*Frame) : 0.415
Stream size : 7.61 GiB (92%)
Title : BDRip by Ash61
Writing library : x264 core 129 r2245 bc13772
Encoding settings : cabac=1 / ref=4 / deblock=1:-1:-1 / analyse=0x3:0x113 / me=umh / subme=9 / psy=1 / psy_rd=1.00:0.15 / mixed_ref=1 / me_range=32 / chroma_me=1 / trellis=2 / 8x8dct=1 / cqm=0 / deadzone=21,11 / fast_pskip=1 / chroma_qp_offset=-3 / threads=12 / lookahead_threads=2 / sliced_threads=0 / nr=0 / decimate=1 / interlaced=0 / bluray_compat=0 / constrained_intra=0 / bframes=9 / b_pyramid=2 / b_adapt=2 / b_bias=0 / direct=3 / weightb=1 / open_gop=0 / weightp=2 / keyint=250 / keyint_min=23 / scenecut=40 / intra_refresh=0 / rc_lookahead=60 / rc=crf / mbtree=1 / crf=19.0 / qcomp=0.70 / qpmin=10 / qpmax=69 / qpstep=4 / vbv_maxrate=40000 / vbv_bufsize=30000 / crf_max=0.0 / nal_hrd=none / frame-packing=4 / ip_ratio=1.40 / aq=1:0.70
Language : German
Default : Yes
Forced : No
Audio #1
ID : 2
Format : AC-3
Format/Info : Audio Coding 3
Mode extension : CM (complete main)
Format settings, Endianness : Big
Codec ID : A_AC3
Duration : 52mn 50s
Bit rate mode : Constant
Bit rate : 640 Kbps
Channel(s) : 6 channels
Channel positions : Front: L C R, Side: L R, LFE
Sampling rate : 48.0 KHz
Bit depth : 16 bits
Compression mode : Lossy
Stream size : 242 MiB (3%)
Title : Дубляж - BD 3D
Language : Russian
Default : Yes
Forced : No
Audio #2
ID : 3
Format : AC-3
Format/Info : Audio Coding 3
Mode extension : CM (complete main)
Format settings, Endianness : Big
Codec ID : A_AC3
Duration : 52mn 50s
Bit rate mode : Constant
Bit rate : 640 Kbps
Channel(s) : 6 channels
Channel positions : Front: L C R, Side: L R, LFE
Sampling rate : 48.0 KHz
Bit depth : 16 bits
Compression mode : Lossy
Stream size : 242 MiB (3%)
Language : English
Default : No
Forced : No
Menu
00:00:00.000 : :1
00:06:22.591 : :2
00:12:21.032 : :3
00:18:00.371 : :4
00:24:51.281 : :5
00:30:02.175 : :6
00:36:12.504 : :7
00:45:24.972 : :8

Для оценки 3Д - Анимированные скрины












Благодарности релизеру (39)

Торрент:

Статус:

Размер:

Зарегистрирован   [ 2013-08-25 19:54 ]

проверено

8.25 GB

 
 Мнение о фильме (7)





Спасибо огромное за качественный фильм. 3д выше всяких похвал.
 

Спасибо за классный фильм. 3d изумительное.
 

Хороший релакс-фильм.Отличное 3д.Спасибо.
 

Спасибо, очень красиво!
 

Фильм классный разве что я ожидал научный фильм про воду а увидел видовой фильм о природе Хорватии - но всё красиво! Спасибо!
 

Лично мне очень понравился.
домашние сказали, че релаксироваться надобно, а дядя сказал : Скукотищщщщща...
Но я с удовольствием смотрел, вот приходишь с работы и вместо того, че бы включить евроньюз, включаешь фильм о заповеднике Хорватии.
Решили в конце весны туда сьездить.
 

Фильм ни о чем. Не смог досмотреть.