Торренты   
 
 

 

Изучая природу 3D / Erlebnis Natur 3D / Experience Nature 3D [2012, BDRip, half1080p, Anamorph OverUnder]

Рейтинг 3D:
4 голосов
7.5
Рейтинг фильма:
4 голосов
7.8
 
Вы должны быть авторизированы,
чтобы ставить оценки


Изучая природу 3DErlebnis Natur 3DExperience Nature 3D
Год выпуска: 2012
Страна: Германия (Power Pictures)
Жанр: Документальный
Продолжительность: 01:00:40
Перевод: Профессиональный (дублированный)
Режиссер: Attila Tenki
Описание: Французские Альпы по праву считаются одним из самых живописных уголков Земли. Авторы фильма приглашают совершить увлекательное путешествие в этот потрясающий мир зеленых склонов и величественных вершин. Любоваться разнообразными красотами уникальной местности можно бесконечно: белоснежные пики, окутанные пушистыми облаками, бурлящие реки, кристально чистые озера и изумрудные луга составляют уникальную биосистему, в которой все взаимосвязано. Каждый поворот горной тропинки сулит новые впечатления и неожиданные открытия, которые становятся по-настоящему яркими в формате 3D.-Премьера: 5 июля 2013
Релиз на Blu-Ray (DVD): 7 августа 2013 (5 сентября 2013)

. .
-Качество: BDRip (by Ash61)
Контейнер: MKV
Формат 3D: Anamorph OverUnder / Вертикальная анаморфная стереопара
Порядок ракурсов: левый ракурс первый-Видео: AVC / 23,976 fps / 1920х1080p / 18.8 Mbps
Аудио:
#1 - Русский / AC3 / 48 KHz / 5.1 ch / 640 Kbps (Дубляж - BD 3D Rus)
#2 - Английский / AC3 / 48 KHz / 5.1 ch / 640 Kbps
Субтитры: Отсутствуют

MediaInfo

General
Unique ID : 180580844950509689414743416249487904947 (0x87DA9B0D0301EB5E8A2D1DE9CC52D0B3)
Complete name : E:\Downloads\ExperienceNature(3D-halfOU)2012(Ash61).mkv
Format : Matroska
Format version : Version 2
File size : 8.67 GiB
Duration : 1h 0mn
Overall bit rate : 20.5 Mbps
Movie name : Изучая природу 3D / Experience Nature 3D (3D) 2012
Encoded date : UTC 2013-08-26 13:39:30
Writing application : mkvmerge v5.8.0 ('No Sleep / Pillow') built on Sep 2 2012 15:37:04
Writing library : libebml v1.2.3 + libmatroska v1.3.0
Video
ID : 1
Format : AVC
Format/Info : Advanced Video Codec
Format profile : High@L4.1
Format settings, CABAC : Yes
Format settings, ReFrames : 4 frames
Codec ID : V_MPEG4/ISO/AVC
Duration : 1h 0mn
Bit rate : 18.8 Mbps
Width : 1 920 pixels
Height : 1 080 pixels
Display aspect ratio : 16:9
Frame rate mode : Constant
Frame rate : 23.976 fps
Color space : YUV
Chroma subsampling : 4:2:0
Bit depth : 8 bits
Scan type : Progressive
Bits/(Pixel*Frame) : 0.378
Stream size : 7.96 GiB (92%)
Title : BDRip by Ash61
Writing library : x264 core 129 r2245 bc13772
Encoding settings : cabac=1 / ref=4 / deblock=1:-1:-1 / analyse=0x3:0x113 / me=umh / subme=9 / psy=1 / psy_rd=1.00:0.15 / mixed_ref=1 / me_range=32 / chroma_me=1 / trellis=2 / 8x8dct=1 / cqm=0 / deadzone=21,11 / fast_pskip=1 / chroma_qp_offset=-3 / threads=12 / lookahead_threads=2 / sliced_threads=0 / nr=0 / decimate=1 / interlaced=0 / bluray_compat=0 / constrained_intra=0 / bframes=9 / b_pyramid=2 / b_adapt=2 / b_bias=0 / direct=3 / weightb=1 / open_gop=0 / weightp=2 / keyint=250 / keyint_min=23 / scenecut=40 / intra_refresh=0 / rc_lookahead=60 / rc=crf / mbtree=1 / crf=18.0 / qcomp=0.70 / qpmin=10 / qpmax=69 / qpstep=4 / vbv_maxrate=40000 / vbv_bufsize=30000 / crf_max=0.0 / nal_hrd=none / frame-packing=4 / ip_ratio=1.40 / aq=1:0.70
Language : German
Default : Yes
Forced : No
Audio #1
ID : 2
Format : AC-3
Format/Info : Audio Coding 3
Mode extension : CM (complete main)
Format settings, Endianness : Big
Codec ID : A_AC3
Duration : 1h 0mn
Bit rate mode : Constant
Bit rate : 640 Kbps
Channel(s) : 6 channels
Channel positions : Front: L C R, Side: L R, LFE
Sampling rate : 48.0 KHz
Bit depth : 16 bits
Compression mode : Lossy
Stream size : 278 MiB (3%)
Title : Дубляж - BD 3D Rus
Language : Russian
Default : Yes
Forced : No
Audio #2
ID : 3
Format : AC-3
Format/Info : Audio Coding 3
Mode extension : CM (complete main)
Format settings, Endianness : Big
Codec ID : A_AC3
Duration : 1h 0mn
Bit rate mode : Constant
Bit rate : 640 Kbps
Channel(s) : 6 channels
Channel positions : Front: L C R, Side: L R, LFE
Sampling rate : 48.0 KHz
Bit depth : 16 bits
Compression mode : Lossy
Stream size : 278 MiB (3%)
Language : English
Default : No
Forced : No
Menu
00:00:00.000 : :1
00:07:32.619 : :2
00:14:25.782 : :3
00:22:04.615 : :4
00:29:41.905 : :5
00:36:58.550 : :6
00:44:09.814 : :7
00:52:01.243 : :8

Для оценки 3Д - Анимированные скрины












Остальные раздачи этого фильма (2)
Благодарности релизеру (17)

Торрент:

Статус:

Размер:

Зарегистрирован   [ 2013-08-26 19:56 ]

проверено

8.67 GB

 
 Мнение о фильме (9)





Сегодня для россиян перекрыли доступ к Рутору!
На всякий случай, устанавливайте плагины на свои браузеры, для обхода российских блокировок!
 

Вот редиски правообладатели! А у Вас документалки прям как из рога изобилия, да ещё с дубляжём! Спасибо!
 

Найдите хоть одно несоответствие нынешней действительности:
"...А кто такие эти полицейские? – спросила Селёдочка.
– Бандиты! – с раздражением сказал Колосок. – Честное слово, бандиты! По-настоящему, обязанность полицейских – защищать население от грабителей, в действительности же они защищают лишь богачей. А богачи-то и есть самые настоящие грабители. Только грабят они нас, прикрываясь законами, которые сами придумывают. А какая, скажите, разница, по закону меня ограбят или не по закону? Да мне всё равно!
------------------
– Тут у вас как-то чудно! – сказал Винтик. – Зачем же вы слушаетесь полицейских и ещё этих… как вы их называете, богачей?
– Попробуй тут не послушайся, когда в их руках все: и земля, и фабрики, и деньги, и вдобавок оружие! – Колосок пригорюнился. – .....Это ясно! ...Не суждено, видно, нам избавиться от нищеты!"
 

Да уж, Саша солидарен :(.
Рутрэкер тоже блочат.
Саш, посоветуй какой плагин на мозиллу поставить? Если ты конечно лисой пользуешься.
 

Саш, у меня как раз основной браузер Мозилла. Плагин - anonymoX (надеюсь не ошибся в написании).
 

Thanks
 

ash61, Вчера тоже через этот плагин, вернее расширение, заходил на рутор.
 

Замечательный,красивый фильм.3D очень качественное.
Пока смотрела,чуть не уснула (в хорошем смысле),такой расслабляющий эффект от музыки и красивых пейзажей.
Большое спасибо.
 

Фильм понравился. Красивая природа,пейзаж.