Торренты   
 
 


Храбрый плавник в 3Д / Back to the Sea 3D (Том Лу / Thom Lu) [2012, Мультфильм, Комедия, BDrip, 1080p]Full OverUnder / Вертикальная стереопара

Рейтинг 3D:
4 голосов
6.8
Рейтинг фильма:
4 голосов
6.2
 
Вы должны быть авторизированы,
чтобы ставить оценки


Храбрый плавник / Back to the Sea
Год выпуска: 2012
Страна: Китай, Канада
Студия: IndustryWorks Pictures, Glory & Dream Digital Stud
Жанр: Мультфильм, Комедия
Продолжительность: 01:37:37
Перевод: Профессиональный (дублированный)
Русские субтитры: нет
Режиссер на русском: Том Лу
Режиссер на английском: Thom Lu
В ролях: Юрий Ловенталь, Кэт Сауси, Том Кенни, Марк Хэмилл, Мэттью Кинг, Тим Карри, Кристиан Слэйтер, Тара Стронг, Джеймс Си, Энни Мумоло
Описание: В прибрежных водах Нью-Йорка живет Кевин — маленькая летучая рыбка. Каждый день Кевин играет со своими друзьями и мечтает попасть на остров Барбадос, в королевство летучих рыб, но его родители считают эти мечты глупыми.
Однажды, чтобы похвастаться, он отправляется к подводной Скале Славы, достать фамильную реликвию семьи — огромную жемчужину, и попадает в рыболовные сети. Кевин вместе с драгоценностью отправляется в аквариум рыбного ресторанчика, где его ждет страшная судьба — стать изысканным деликатесом. Другие обитатели аквариума верят в то, что исчезающие рыбы становятся людьми, поэтому ждут с нетерпением, когда за ними придут. Для того, чтобы спасти своих новых друзей от смерти и вернуться домой с фамильной жемчужиной, Кевину предстоит показать всю свою храбрость.
Сэмпл: http://www.sendspace.com/file/ew9il8
Качество: BDrip
Контейнер: MKV
Формат 3D: OverUnder / Вертикальная стереопара
Порядок ракурсов: левый ракурс первый
Видео кодек: x264
Аудио кодек: AC3
Видео: AVC / High@L5.0 / 23,976 fps / 1920х1600 / 5602 Кбит/сек
Аудио: Русский / AC3 / 48 KHz / 5.1 ch / 640 Kbps
Релиз группы: ВНИМАНИЕ ! На встроенных ТВ-плеерах работать не будет!!!
Железные плееры на которых воспроизводятся полные стереопары:Popcorn C-200 , Dune HD Smart D1 , Dune HD DUO , Dune HD Smart H1 , Dune HD Smart B1 , Dune HD Max , Dune HD TV-303D , Dune HD Base 3D

MediaInfo

General
Unique ID : 183305254361096416291326429427958476109 (0x89E74ECE316847FEAEB3AE5BE45EED4D)
Complete name : E:\закачки\Back to the Sea.Rip by SeRoGa00.mkv
Format : Matroska
Format version : Version 2
File size : 4.34 GiB
Duration : 1h 37mn
Overall bit rate : 6 369 Kbps
Encoded date : UTC 2013-08-27 08:01:52
Writing application : mkvmerge v3.4.0 ('Rapunzel') сборка от May 15 2010 09:38:20
Writing library : libebml v0.8.0 + libmatroska v0.9.0
Video
ID : 1
Format : AVC
Format/Info : Advanced Video Codec
Format profile : High@L5.0
Format settings, CABAC : Yes
Format settings, ReFrames : 4 frames
Codec ID : V_MPEG4/ISO/AVC
Duration : 1h 37mn
Bit rate : 5 602 Kbps
Width : 1 920 pixels
Height : 1 600 pixels
Display aspect ratio : 1.200
Frame rate mode : Constant
Frame rate : 23.976 fps
Color space : YUV
Chroma subsampling : 4:2:0
Bit depth : 8 bits
Scan type : Progressive
Bits/(Pixel*Frame) : 0.076
Stream size : 3.82 GiB (88%)
Title : Rip by SeRoGa00
Writing library : x264 core 128 r2216kMod 198a7ea
Encoding settings : cabac=1 / ref=4 / deblock=1:-3:-3 / analyse=0x3:0x113 / me=umh / subme=9 / psy=1 / fade_compensate=0.00 / psy_rd=1.00:0.15 / mixed_ref=1 / me_range=16 / chroma_me=1 / trellis=2 / 8x8dct=1 / cqm=0 / deadzone=21,11 / fast_pskip=1 / chroma_qp_offset=-3 / threads=9 / lookahead_threads=1 / sliced_threads=0 / nr=0 / decimate=1 / interlaced=0 / bluray_compat=0 / constrained_intra=0 / bframes=6 / b_pyramid=2 / b_adapt=2 / b_bias=0 / direct=3 / weightb=1 / open_gop=0 / weightp=2 / keyint=250 / keyint_min=23 / scenecut=40 / intra_refresh=0 / rc_lookahead=60 / rc=crf / mbtree=1 / crf=18.0000 / qcomp=0.60 / qpmin=10 / qpmax=69 / qpstep=4 / vbv_maxrate=40000 / vbv_bufsize=40000 / crf_max=0.0 / nal_hrd=none / ip_ratio=1.40 / aq=1:1.00
Language : English
Default : No
Forced : No
Audio
ID : 2
Format : AC-3
Format/Info : Audio Coding 3
Mode extension : CM (complete main)
Format settings, Endianness : Big
Codec ID : A_AC3
Duration : 1h 37mn
Bit rate mode : Constant
Bit rate : 640 Kbps
Channel(s) : 6 channels
Channel positions : Front: L C R, Side: L R, LFE
Sampling rate : 48.0 KHz
Bit depth : 16 bits
Compression mode : Lossy
Stream size : 447 MiB (10%)
Language : Russian
Default : Yes
Forced : No

Скриншоты


Благодарности релизеру (2)

Торрент:

Статус:

Размер:

Зарегистрирован   [ 2013-08-27 23:19 ]

* не проверено

4.34 GB