Торренты   
 
 

 

Стартрек: Возмездие / Star Trek Into Darkness [2013 г., BDRip 1080p, Half OverUnder]

Рейтинг 3D:
18 голосов
7.8
Рейтинг фильма:
19 голосов
7.5
 
Вы должны быть авторизированы,
чтобы ставить оценки


Стартрек: Возмездие в 3D/ Star Trek Into Darkness in 3D
Год выпуска: 2013
Страна: США
Жанр: Фантастика, Боевик, Приключения,
Продолжительность: 02:12:12
Перевод: Профессиональный (полное дублирование) звук с TS

Режиссер: Джей Джей Абрамс
В ролях: Крис Пайн, Закари Куинто, Карл Урбан, Зои Салдана, Саймон Пегг, Бенедикт Камбербэтч, Антон Ельчин, Элис Ив, Джон Чо, Леонард Нимой,
Роли дублировали: Александр Коврижных, Пётр Иващенко, Илья Исаев, Борис Шувалов, Михаил Белякович,
Формат 3D: Half OverUnder / Вертикальная анаморфная стереопара
Описание: Вернувшись на Землю, команда корабля «Энтерпрайз» обнаруживает, что деятельность и принципы их организации подорваны изнутри. Флот скован необъяснимым ужасом и бездействует, пока мир все глубже погружается в бездну. Капитан Кирк берет на себя руководство операцией по поимке злодея, ответственного за этот хаос и способного уничтожить все человечество. В запутанной игре не на жизнь, а на смерть, любовь и дружба будут принесены в жертву ради единственного, что осталось у Кирка — его команды.

Качество: BDRip 1080p
Формат: MKV
Видео кодек: x264
Аудио кодек: AC3
Видео: 1920 x 1080 (16:9), 23,976 fps, 11,6 Мбит/сек, (0.234 bits/pixel)
Аудио#1: 48.0 kHz, AC3 2 ch, 128.00 kbps avg
Аудио#2: 48.0 kHz, AC3 Dolby Digital, 3/2 (L,C,R,l,r) + LFE ch, 384 kbps

Скриншоты





-

MediaInfo

Общее
Уникальный идентификатор : 190897420794958776484968222155866261825 (0x8F9D8182C33F158199A6FAC21C224941)
Полное имя : D:\DVD\Star.Trek.Into.Darkness.3D.2013.1080p.BluRay.Half-OU.mkv
Формат : Matroska
Версия формата : Version 4 / Version 2
Размер файла : 11,4 Гбайт
Продолжительность : 2 ч. 12 м.
Общий поток : 12,4 Мбит/сек
Название фильма : Стартрек: Возмездие / Star.Trek.Into.Darkness.3D.2013.1080p.BluRay.Half-OU.
Дата кодирования : UTC 2013-08-27 18:19:05
Программа кодирования : mkvmerge v6.2.0 ('Promised Land') built on Apr 28 2013 12:22:01
Библиотека кодирования : libebml v1.3.0 + libmatroska v1.4.0
Видео
Идентификатор : 1
Формат : AVC
Формат/Информация : Advanced Video Codec
Профиль формата : High@L4.1
Параметр CABAC формата : Да
Параметр ReFrames формата : 2 кадра
Параметр GOP формата : M=3, N=24
Идентификатор кодека : V_MPEG4/ISO/AVC
Продолжительность : 2 ч. 12 м.
Битрейт : 11,6 Мбит/сек
Ширина : 1920 пикселей
Высота : 1080 пикселей
Соотношение сторон : 16:9
Режим частоты кадров : Постоянный
Частота кадров : 23,976 кадра/сек
Цветовое пространство : YUV
Субдискретизация насыщенности : 4:2:0
Битовая глубина : 8 бит
Тип развёртки : Прогрессивная
Бит/(Пиксели*Кадры) : 0.234
Размер потока : 10,7 Гбайт (94%)
Заголовок : Star Trek Into Darkness.3D.2013.1080p.BluRay.Half-OU.mkv
Библиотека кодирования : x264 core
Язык : English
Default : Да
Forced : Нет
Основные цвета : BT.709
Характеристики трансфера : BT.709
Коэффициенты матрицы : BT.709
Аудио #1
Идентификатор : 2
Формат : AC-3
Формат/Информация : Audio Coding 3
Расширение режима : CM (complete main)
Параметр Endianness формата : Big
Идентификатор кодека : A_AC3
Продолжительность : 2 ч. 12 м.
Вид битрейта : Постоянный
Битрейт : 128 Кбит/сек
Каналы : 2 канала
Расположение каналов : Front: L R
Частота : 48,0 КГц
Битовая глубина : 16 бит
Метод сжатия : С потерями
Размер потока : 121 Мбайт (1%)
Заголовок : Dub TS
Язык : Russian
Default : Да
Forced : Да
Аудио #2
Идентификатор : 3
Формат : AC-3
Формат/Информация : Audio Coding 3
Расширение режима : CM (complete main)
Параметр Endianness формата : Big
Идентификатор кодека : A_AC3
Продолжительность : 2 ч. 12 м.
Вид битрейта : Постоянный
Битрейт : 384 Кбит/сек
Каналы : 6 каналов
Расположение каналов : Front: L C R, Side: L R, LFE
Частота : 48,0 КГц
Битовая глубина : 16 бит
Метод сжатия : С потерями
Размер потока : 363 Мбайт (3%)
Язык : English
Default : Нет
Forced : Нет
Меню
00:00:00.000 : en:00:00:00.000
00:10:20.370 : en:00:10:20.370
00:19:21.494 : en:00:19:21.494
00:30:03.969 : en:00:30:03.969
00:40:09.115 : en:00:40:09.115
00:46:05.262 : en:00:46:05.262
00:56:38.228 : en:00:56:38.228
01:06:35.783 : en:01:06:35.783
01:12:55.663 : en:01:12:55.663
01:22:45.752 : en:01:22:45.752
01:30:54.741 : en:01:30:54.741
01:38:36.369 : en:01:38:36.369
01:47:09.548 : en:01:47:09.548
01:54:17.142 : en:01:54:17.142
01:59:20.653 : en:01:59:20.653
02:03:18.308 : en:02:03:18.308
Благодарности релизеру (13)

Торрент:

Статус:

Размер:

Зарегистрирован   [ 2013-08-27 23:36 ]

поглощено

11.42 GB

 
Комментарии:





Фильм шикарный
 

А как в 3Д? Стоит ли именно в 3Д смотреть или как с железным человеком — вроде 3Д нормальное, но фильм совсем не для этого?
 

Спасибо дождались
 

Спасибо огромное!! не ждал! респект релизеру!
 

звук с TS - это что значит?
 

тс это с кинотеатра...как в бочку говорят
 

Звук нормальный кстати
 

А когда будет с расширением экрана в сценах снятых на камеры IMAX?
 

Спасибо релизеру!!!!:)
 

Отличное кино!!!! Рекомендую к просмотру!!!!
 

Народ...люди ... братья .... дайте скорости не уходите с раздачи ну пожалуйста. а то кажется что все на 3g ползают )))))
 

Поглощено в пользу http://torrents3d.ru/article/4321/film/
 

3 д отличное но сам фильм не вдохновил
 

первая часть фильма была намного интересней,но 3д понравилось
 

Фильм на любителя. 3D понравилось.
 

мне наоборот, 3д не глубокое...
 

Фильмом разочарован :(