Торренты   
 
 

 

Патагония: По следам Дарвина (часть 2) / Patagonien (teil 2) / Patagonia (part 2) [2012, BDRip, half1080p, Anamorph OverUnder]

Рейтинг 3D:
1 голосов
9.0
Рейтинг фильма:
1 голосов
9.0
 
Вы должны быть авторизированы,
чтобы ставить оценки


Патагония: По следам Дарвина
Часть 2: От Камаронес до Скалы Дарвина

Patagonien: Auf den Spuren von Charles Darwin
Teil 2: Von Camarones bis Darwins Rock

Patagonia: In the Footsteps of Charles Darwin
Part 2: From Camarones to Darwin's Rock

Год выпуска: 2012
Страна: Германия (New KSM)
Жанр: Документальный
Продолжительность: 00:55:23
Перевод: Профессиональный одноголосый закадровый
Режиссер: Norbert Vander
Описание: Патагония — страна бесконечных просторов и нетронутой природы, куда попадают очень немногие. Следуя по маршруту путешествия выдающегося ученого 19 века Чарльза Дарвина, фильм показывает удивительный мир животных и захватывающие дух пейзажи. Полуостров Вальдес — это настоящий райский уголок на восточном побережье Патагонии, который находится под охраной ЮНЕСКО. Вы сможете встретиться с китами, посетить одну из последних колоний морских слонов и понаблюдать за несчетными колониями Магеллановых пингвинов. Вам предоставляется возможность насладиться зрелищем одного из красивейших ландшафтов на Земле.
Доп. информация: Первая часть тут-Релиз на Blu-Ray (DVD): 24 апреля 2013 (25 апреля 2013)
.
-Качество: BDRip (by Ash61)
Контейнер: MKV
Формат 3D: Anamorph OverUnder / Вертикальная анаморфная стереопара
Порядок ракурсов: левый ракурс первый
Видео кодек: x264
Аудио кодек: AC3-Видео: AVC / 23,976 fps / 1920х1080p / 16.4 Mbps
Аудио:
#1 - Русский / AC3 / 48 KHz / 5.1 ch / 640 Kbps (VO - BD 3D Rus)
#2 - Английский / AC3 / 48 KHz / 5.1 ch / 640 Kbps
Субтитры: Отсутствуют

MediaInfo

General
Unique ID : 177220676912608509378436324952873498508 (0x855375F9CF81B758A2016D7E4C71F78C)
Complete name : E:\Downloads\Patagonia.InTheFootstepsOfCharlesDarwin.Part2(3D-halfOU)2012(Ash61).mkv
Format : Matroska
Format version : Version 2
File size : 6.98 GiB
Duration : 55mn 22s
Overall bit rate : 18.0 Mbps
Movie name : Патагония: По следам Дарвина 3D (Часть 2) / Patagonien 3D (Part 2) (3D) 2012
Encoded date : UTC 2013-08-28 16:07:42
Writing application : mkvmerge v5.8.0 ('No Sleep / Pillow') built on Sep 2 2012 15:37:04
Writing library : libebml v1.2.3 + libmatroska v1.3.0
Video
ID : 1
Format : AVC
Format/Info : Advanced Video Codec
Format profile : High@L4.1
Format settings, CABAC : Yes
Format settings, ReFrames : 4 frames
Codec ID : V_MPEG4/ISO/AVC
Duration : 55mn 22s
Bit rate : 16.4 Mbps
Width : 1 920 pixels
Height : 1 080 pixels
Display aspect ratio : 16:9
Frame rate mode : Constant
Frame rate : 23.976 fps
Color space : YUV
Chroma subsampling : 4:2:0
Bit depth : 8 bits
Scan type : Progressive
Bits/(Pixel*Frame) : 0.330
Stream size : 6.34 GiB (91%)
Title : BDRip by Ash61
Writing library : x264 core 129 r2245 bc13772
Encoding settings : cabac=1 / ref=4 / deblock=1:-1:-1 / analyse=0x3:0x113 / me=umh / subme=9 / psy=1 / psy_rd=1.00:0.15 / mixed_ref=1 / me_range=32 / chroma_me=1 / trellis=2 / 8x8dct=1 / cqm=0 / deadzone=21,11 / fast_pskip=1 / chroma_qp_offset=-3 / threads=12 / lookahead_threads=2 / sliced_threads=0 / nr=0 / decimate=1 / interlaced=0 / bluray_compat=0 / constrained_intra=0 / bframes=10 / b_pyramid=2 / b_adapt=2 / b_bias=0 / direct=3 / weightb=1 / open_gop=0 / weightp=2 / keyint=250 / keyint_min=23 / scenecut=40 / intra_refresh=0 / rc_lookahead=60 / rc=crf / mbtree=1 / crf=18.0 / qcomp=0.70 / qpmin=10 / qpmax=69 / qpstep=4 / vbv_maxrate=40000 / vbv_bufsize=30000 / crf_max=0.0 / nal_hrd=none / frame-packing=4 / ip_ratio=1.40 / aq=1:0.70
Language : German
Default : Yes
Forced : No
Audio #1
ID : 2
Format : AC-3
Format/Info : Audio Coding 3
Mode extension : CM (complete main)
Format settings, Endianness : Big
Codec ID : A_AC3
Duration : 55mn 22s
Bit rate mode : Constant
Bit rate : 640 Kbps
Channel(s) : 6 channels
Channel positions : Front: L C R, Side: L R, LFE
Sampling rate : 48.0 KHz
Bit depth : 16 bits
Compression mode : Lossy
Stream size : 253 MiB (4%)
Title : Одноголосый закадровый - BD 3D Rus
Language : Russian
Default : Yes
Forced : No
Audio #2
ID : 3
Format : AC-3
Format/Info : Audio Coding 3
Mode extension : CM (complete main)
Format settings, Endianness : Big
Codec ID : A_AC3
Duration : 55mn 22s
Bit rate mode : Constant
Bit rate : 640 Kbps
Channel(s) : 6 channels
Channel positions : Front: L C R, Side: L R, LFE
Sampling rate : 48.0 KHz
Bit depth : 16 bits
Compression mode : Lossy
Stream size : 253 MiB (4%)
Language : English
Default : No
Forced : No
Menu
00:00:00.000 : :1
00:06:41.026 : :2
00:12:23.493 : :3
00:18:27.231 : :4
00:24:28.384 : :5
00:30:31.872 : :6
00:36:27.727 : :7
00:42:32.216 : :8

Для оценки 3Д - Анимированные скрины












Благодарности релизеру (13)

Торрент:

Статус:

Размер:

Зарегистрирован   [ 2013-08-30 13:34 ]

проверено

6.98 GB

 
 Мнение о фильме (1)





Как и в первой части, показана не только замечательная природа, но и жизнь людей, порой в непростых условиях. 3Д тоже отличное. Не зря так долго скачивал. Спасибо большое ash61!