Торренты   
 
 

 

Маленькие монстры: Спрятаться и обмануть / Kleine Monster: Täuschen & Tarnen / Little Monsters: Hide & Cheat [2012, BDRip, half1080p, Anamorph OverUnder]

Рейтинг 3D:
1 голосов
1.0
Рейтинг фильма:
Пока никто не голосовал
 
Вы должны быть авторизированы,
чтобы ставить оценки


Маленькие монстры: Спрятаться и обмануть
Kleine Monster: Täuschen & Tarnen
Little Monsters: Hide & Cheat

Год выпуска: 2012
Страна: Австрия (ORF)
Жанр: Документальный
Продолжительность: 00:51:49
Перевод: Отсутствует
Режиссер: Kurt Mündl
Описание: Это мировая премьера 3D документального фильма представляет некоторые из самых странных стратегий животного царства выживания. Наиболее поразительные образцы поведения не встречаются не только среди классических крупных животных, таких как львы или белые медведи, но и среди природы меньших существ: древолазов, хамелеонов, богомолов и скорпионов. Эти «Маленькие монстры» являются мастерами выживания. До недавнего времени лишь очень малая часть ученых пользовалась техническими средствами для их изучения с близкого расстояния. Но теперь, благодаря 3D визуализации, большая аудитория может увидеть хамелеона, выстреливающего своим языком, с близкого расстояния, гремучих змей, ударяющим по своей цели с точностью до долей дюйма, охоту богомола и питание колибри, снятое изнутри цветка! Вместо того чтобы просто показывать плоское представление этих удивительных трюков, современное 3D обеспечивает эмоциональное переживание. В том числе в сочетании его с гениальным замедленным 3D и 3D-интервальной съемкой. «Little Monsters» даже улучшает современное 3D для большего воздействия, показывая невероятные сцены животного мира, которого вы никогда не видели и не чувствовали раньше.
Доп информация:
ИМХО:
Очень красивый фильм, снятый весьма добротно, не на скорую руку.
3Д очень странное - где-то очень комфортное, глубокое, где-то просто авто-конверт, кое-где вообще неправильное. Но самое удивительное - есть эпизоды, в которых совмещено честное 3Д с конвертацией.- -Качество: BDRip (by Ash61)
Контейнер: MKV
Формат 3D: Anamorph OverUnder / Вертикальная анаморфная стереопара
Порядок ракурсов: левый ракурс первый-Видео: AVC / 23,976 fps / 1920х1080p / 19.2 Mbps
Аудио: Английский / AC3 / 48 KHz / 5.1 ch / 640 Kbps
Субтитры: Отсутствуют

MediaInfo

General
Unique ID : 205134762187160859461581890544261771477 (0x9A5384A30F6760FBA0D45624FED5B0D5)
Complete name : E:\Downloads\LittleMonsters.HideAndCheat(3D-halfOU)2012(Ash61)Eng.mkv
Format : Matroska
Format version : Version 2
File size : 7.34 GiB
Duration : 51mn 48s
Overall bit rate : 20.3 Mbps
Movie name : Маленькие монстры / Little Monsters: Hide & Cheat / Kleine Monster: Täuschen & Tarnen (3D) 2012
Encoded date : UTC 2013-08-29 17:49:56
Writing application : mkvmerge v5.8.0 ('No Sleep / Pillow') built on Sep 2 2012 15:37:04
Writing library : libebml v1.2.3 + libmatroska v1.3.0
Video
ID : 1
Format : AVC
Format/Info : Advanced Video Codec
Format profile : High@L4.1
Format settings, CABAC : Yes
Format settings, ReFrames : 4 frames
Codec ID : V_MPEG4/ISO/AVC
Duration : 51mn 48s
Bit rate : 19.2 Mbps
Width : 1 920 pixels
Height : 1 080 pixels
Display aspect ratio : 16:9
Frame rate mode : Constant
Frame rate : 23.976 fps
Color space : YUV
Chroma subsampling : 4:2:0
Bit depth : 8 bits
Scan type : Progressive
Bits/(Pixel*Frame) : 0.387
Stream size : 6.96 GiB (95%)
Title : BDRip by Ash61
Writing library : x264 core 129 r2245 bc13772
Encoding settings : cabac=1 / ref=4 / deblock=1:-1:-1 / analyse=0x3:0x113 / me=umh / subme=9 / psy=1 / psy_rd=1.00:0.15 / mixed_ref=1 / me_range=32 / chroma_me=1 / trellis=2 / 8x8dct=1 / cqm=0 / deadzone=21,11 / fast_pskip=1 / chroma_qp_offset=-3 / threads=12 / lookahead_threads=2 / sliced_threads=0 / nr=0 / decimate=1 / interlaced=0 / bluray_compat=0 / constrained_intra=0 / bframes=9 / b_pyramid=2 / b_adapt=2 / b_bias=0 / direct=3 / weightb=1 / open_gop=0 / weightp=2 / keyint=250 / keyint_min=23 / scenecut=40 / intra_refresh=0 / rc_lookahead=60 / rc=crf / mbtree=1 / crf=18.0 / qcomp=0.70 / qpmin=10 / qpmax=69 / qpstep=4 / vbv_maxrate=40000 / vbv_bufsize=30000 / crf_max=0.0 / nal_hrd=none / frame-packing=4 / ip_ratio=1.40 / aq=1:0.70
Default : Yes
Forced : No
Audio
ID : 2
Format : AC-3
Format/Info : Audio Coding 3
Mode extension : CM (complete main)
Format settings, Endianness : Big
Codec ID : A_AC3
Duration : 51mn 48s
Bit rate mode : Constant
Bit rate : 640 Kbps
Channel(s) : 6 channels
Channel positions : Front: L C R, Side: L R, LFE
Sampling rate : 48.0 KHz
Bit depth : 16 bits
Compression mode : Lossy
Stream size : 237 MiB (3%)
Language : English
Default : Yes
Forced : No
Menu
00:00:00.000 : :1
00:10:07.982 : :2
00:20:10.000 : :3
00:29:48.954 : :4
00:40:05.987 : :5

Для оценки 3Д - Анимированные скрины
























Благодарности релизеру (9)

Торрент:

Статус:

Размер:

Зарегистрирован   [ 2013-08-30 17:47 ]

проверено

7.34 GB