Торренты   
 
 

 

Юго-западная Америка 3D: От Долины смерти до Гранд-каньона / America's Southwest 3D: From Grand Canyon To Death Valley [2012, BDRip, half1080p, Anamorph OverUnder]

Рейтинг 3D:
6 голосов
7.3
Рейтинг фильма:
6 голосов
7.3
 
Вы должны быть авторизированы,
чтобы ставить оценки


Юго-западная Америка 3D: От Долины смерти до Гранд-каньона
Amerikas Südwesten: Vom Grand Canyon bis zum Death Valley
America's Southwest 3D: From Grand Canyon To Death Valley

Год выпуска: 2012
Страна: Германия (Power Pictures)
Жанр: Документальный
Продолжительность: 01:00:13
Перевод: Профессиональный дублированный
Режиссер: Attila Tenki
Описание: Дикий Запад Соединенных штатов. Край, окруженный мифами и овеянный легендами. Поражающие воображение пустынные ландшафты и завораживающие пейзажи, где гигантские кактусы устремляются в бездонную синеву неба, а живописные каньоны соседствуют с древними валунами, свидетельствуя о могуществе природы и быстротечности времени.
Кладовая полезных ископаемых, где сходятся Аризона, Невада, Калифорния и Юта, ежегодно привлекает миллионы туристов со всего мира, являясь настоящей Меккой для художников и исследователей, авантюристов и искателей приключений. Незабываемое путешествие в формате 3D по Долине Смерти и Великому каньону познакомит вас с многообразием садов пустыни, откроет тайны истинной красоты окружающего нас мира.-Релиз на Blu-Ray (DVD): 24 июля 2013 (22 августа 2013)
.
-Качество: BDRip (by Ash61)
Контейнер: MKV
Формат 3D: Half OverUnder / Вертикальная анаморфная стереопара
Порядок ракурсов: левый ракурс первый-Видео: AVC / 23,976 fps / 1920х1080p / 9123 Kbps
Аудио:
#1 - Русский / AC3 / 48 KHz / 5.1 ch / 640 Kbps (Дубляж - BD 3D Rus)
#2 - Английский / AC3 / 48 KHz / 5.1 ch / 640 Kbps
Субтитры: Отсутствуют

MediaInfo

General
Unique ID : 240093029947659816603803246508466961531 (0xB4A03C4F1179AA48A454028165CAFC7B)
Complete name : E:\Downloads\America'sSouthwest.FromGrandCanyonToDeathValley(3D-halfOU)2012(Ash61).mkv
Format : Matroska
Format version : Version 2
File size : 4.47 GiB
Duration : 1h 0mn
Overall bit rate : 10.6 Mbps
Movie name : Американский юго-запад: От Гранд-Каньона до Долины Смерти / America's Southwest: From Grand Canyon to Death Valley (3D) 2012
Encoded date : UTC 2013-08-03 10:58:11
Writing application : mkvmerge v5.8.0 ('No Sleep / Pillow') built on Sep 2 2012 15:37:04
Writing library : libebml v1.2.3 + libmatroska v1.3.0
Video
ID : 1
Format : AVC
Format/Info : Advanced Video Codec
Format profile : High@L4.1
Format settings, CABAC : Yes
Format settings, ReFrames : 4 frames
Codec ID : V_MPEG4/ISO/AVC
Duration : 1h 0mn
Bit rate : 9 123 Kbps
Width : 1 920 pixels
Height : 1 080 pixels
Display aspect ratio : 16:9
Frame rate mode : Constant
Frame rate : 23.976 fps
Color space : YUV
Chroma subsampling : 4:2:0
Bit depth : 8 bits
Scan type : Progressive
Bits/(Pixel*Frame) : 0.184
Stream size : 3.84 GiB (86%)
Title : BDRip by Ash61
Writing library : x264 core 119 r2106 07efeb4
Encoding settings : cabac=1 / ref=4 / deblock=1:-3:-3 / analyse=0x3:0x113 / me=umh / subme=9 / psy=1 / psy_rd=1.00:0.15 / mixed_ref=1 / me_range=32 / chroma_me=1 / trellis=2 / 8x8dct=1 / cqm=0 / deadzone=21,11 / fast_pskip=1 / chroma_qp_offset=-3 / threads=12 / sliced_threads=0 / nr=0 / decimate=1 / interlaced=0 / bluray_compat=0 / constrained_intra=0 / bframes=7 / b_pyramid=2 / b_adapt=2 / b_bias=0 / direct=3 / weightb=1 / open_gop=0 / weightp=2 / keyint=250 / keyint_min=23 / scenecut=40 / intra_refresh=0 / rc_lookahead=60 / rc=crf / mbtree=1 / crf=18.0 / qcomp=0.70 / qpmin=10 / qpmax=51 / qpstep=4 / vbv_maxrate=40000 / vbv_bufsize=30000 / crf_max=0.0 / nal_hrd=none / frame-packing=4 / ip_ratio=1.40 / aq=1:0.70
Language : German
Default : Yes
Forced : No
Audio #1
ID : 2
Format : AC-3
Format/Info : Audio Coding 3
Mode extension : CM (complete main)
Format settings, Endianness : Big
Codec ID : A_AC3
Duration : 1h 0mn
Bit rate mode : Constant
Bit rate : 640 Kbps
Channel(s) : 6 channels
Channel positions : Front: L C R, Side: L R, LFE
Sampling rate : 48.0 KHz
Bit depth : 16 bits
Compression mode : Lossy
Stream size : 276 MiB (6%)
Title : Дубляж - BD3D
Language : Russian
Default : Yes
Forced : No
Audio #2
ID : 3
Format : AC-3
Format/Info : Audio Coding 3
Mode extension : CM (complete main)
Format settings, Endianness : Big
Codec ID : A_AC3
Duration : 1h 0mn
Bit rate mode : Constant
Bit rate : 640 Kbps
Channel(s) : 6 channels
Channel positions : Front: L C R, Side: L R, LFE
Sampling rate : 48.0 KHz
Bit depth : 16 bits
Compression mode : Lossy
Stream size : 276 MiB (6%)
Language : English
Default : No
Forced : No
Menu
00:00:00.000 : :1
00:06:09.244 : :2
00:18:26.272 : :3
00:29:48.620 : :4
00:41:35.243 : :5
00:52:05.956 : :6

Для оценки 3Д - Анимированные скрины












Благодарности релизеру (24)

Торрент:

Статус:

Размер:

Зарегистрирован   [ 2013-08-31 17:34 ]

проверено

4.47 GB

 
 Мнение о фильме (3)





Фильм нормальный поучительный, 3Д в норме
 

Видимо для благозвучия изменили в переводе названия направление. From Grand Canyon To Death Valley - должно быть: От Гранд-каньона до Долины смерти. Но фильм все-равно хороший. Спасибо!
 

3D хорошее, но фильм полная муть. Пол часа одни камни показывают и ни одной живности. При том, что сами говорят, что жизнь даже в пустыне кипит. До конца не вытерпел. Скукота смертная.