Торренты   
 
 


Рa. Ван! / Ра. Первый! / Игра еще не окончена / Ra. One (Анубхав Синха) [2011 г.,3DTV, Anamorph SideBySide]

Рейтинг 3D:
14 голосов
6.6
Рейтинг фильма:
14 голосов
5.3
 
Вы должны быть авторизированы,
чтобы ставить оценки


Рa. Ван! / Ра. Первый! / Игра еще не окончена / Ra. One
Год выпуска: 2011
Страна: Индия
Жанр: Фантастика, семейный
Продолжительность: 02:33:56
Перевод: Любительский (многоголосый, закадровый) Alex White & Irene Black & Mallika
Режиссер: Анубхав Синха
В ролях: Шахрукх Кхан, Карина Капур, Арджун Рампал, Шахана Госвами, Сатиш Шах, Далип Тахил, Суреш Менон, Санджай Датт, Раджникант, Джо Иган
Описание: Фильм о Шекхаре, инженере программного обеспечения в Майами, который испытывает видеоигру и пытается победить ее злодея Ра-Вана. Пытаясь найти общий язык со своим сыном-подростком, проектировщик игры создает предельного злодея видеоигр. Когда программа злодея приобретает самосознание, он сбегает из игры и убивает отца. Теперь преследуемый цифровым демоном, так как он — единственный игрок, способный победить его, Мальчик должен извлечь героя игры — который был разработан в воображении его отца. Вместе маловероятный дуэт начинает строить те отношения, которые они никогда не разделяли как отец и сын, а между делом препятствуют плану злодея поработить мир. Сумеют ли они? Самое важное, как они преодолеют препятствия, чтобы одолеть злодея?
Формат 3D: Anamorph SideBySide 3DTV
Видео: AVC, High@L4.0, 1920х1080, 24,000 кадра/сек, 11.8 Mbps
Аудио: Rus, AC-3, 6 каналов, 448 Кбит/сек, 48,0 КГц

Скриншоты




Media Info

General
Unique ID : 230759063199890898598973598155519703274 (0xAD9A9437BDB8947BBFE5C342F89238EA)
Complete name : E:\STEREO\Ra. One_3DTV.mkv
Format : Matroska
Format version : Version 2
File size : 13.4 GiB
Duration : 2h 33mn
Overall bit rate : 12.5 Mbps
Movie name : VOLTAGE_3D.Title36.BlurayRip
Encoded date : UTC 2013-09-03 18:25:27
Writing application : mkvmerge v3.4.0 ('Rapunzel') сборка от May 15 2010 09:38:20
Writing library : libebml v0.8.0 + libmatroska v0.9.0
Video
ID : 1
Format : AVC
Format/Info : Advanced Video Codec
Format profile : High@L4.1
Format settings, CABAC : Yes
Format settings, ReFrames : 2 frames
Codec ID : V_MPEG4/ISO/AVC
Duration : 2h 33mn
Bit rate : 11.8 Mbps
Width : 1 920 pixels
Height : 1 080 pixels
Display aspect ratio : 16:9
Frame rate : 24.000 fps
Original frame rate : 23.976 fps
Color space : YUV
Chroma subsampling : 4:2:0
Bit depth : 8 bits
Scan type : Progressive
Bits/(Pixel*Frame) : 0.236
Stream size : 12.6 GiB (94%)
Writing library : x264 core
Default : Yes
Forced : No
Color primaries : BT.709-5, BT.1361, IEC 61966-2-4, SMPTE RP177
Transfer characteristics : BT.709-5, BT.1361
Matrix coefficients : BT.709-5, BT.1361, IEC 61966-2-4 709, SMPTE RP177
Audio
ID : 2
Format : AC-3
Format/Info : Audio Coding 3
Mode extension : CM (complete main)
Codec ID : A_AC3
Duration : 2h 33mn
Bit rate mode : Constant
Bit rate : 448 Kbps
Channel(s) : 6 channels
Channel positions : Front: L C R, Side: L R, LFE
Sampling rate : 48.0 KHz
Bit depth : 16 bits
Compression mode : Lossy
Stream size : 493 MiB (4%)
Language : Russian
Default : Yes
Forced : No
Благодарности релизеру (29)

Торрент:

Статус:

Размер:

Зарегистрирован   [ 2013-09-03 22:50 ]

проверено

13.4 GB

 
 Мнение о фильме (17)





Ниуясе индусы супергерои. Валера АГОННЬ
 

Пародия на ТРОНА, нужно качать)))
 

Мое мнение-один раз посмотреть можно для ознокомления...ну и не больше!
 

круть :))))))))))))))
 

Поют, пляшут? Если нет, то и качать не буду :) Хотя... Раз фамилия Капур в титрах, значит весчь!
 

та в этом фильме и терминатор и человек паук...и даж игра crysis :)))
 

джимми джимми, ача-ача, поют там ?
 

Фильм просто жееесть. Даже не знаю, в хорошем смысле или в плохом. Просто жесть и всё. Смешанные чувства. В начале полнейший бред, потом вроде интересно довольно. Ну и как всегда, трэшовые смешные моменты веселят.
 

на троечку тянет.
 

Комментирую очень редко, но здесь не удержался: фильм - ГОВНА кусок. 3D хорошее.
 

Записал,но даже нестал смотреть....(пролистал чушь и удалил)
 

Качество раздачи радует. Содержание фильма вызывает противоречивые чувства...Но, один раз просмотришь, и больше не потянет...
 

3D хорошее, фильм , на любителя.
 

Митхуна Чакроборти на них нет )))
 

только для индусов
 

Я всегда говорил, что фильмы разделяются на три категории : Хорошие, Плохие и ИНДИЙСКИЕ
 

Станьте кто-нибудь на раздачу, плиз!