Торренты   
 
 

 

Zомби каникулы (Кирилл Кемниц) [2013 г., Anamorph OverUnder]

Рейтинг 3D:
25 голосов
2.2
Рейтинг фильма:
25 голосов
2.0
 
Вы должны быть авторизированы,
чтобы ставить оценки


© Закрыто правообладателем
Год выпуска: 2013
Страна: Россия
Жанр: ужасы, триллер, комедия
Продолжительность: 01:35:07
Перевод: Не требуется
Режиссер: Кирилл Кемниц
В ролях: Юлия Волкова, Михаил Ефремов, Антон Зиновьев, Ирина Хануник-Ромбальская, Александр Ефремов, Дарья Торчилина, Александр Левенчук, Ольга Доценко, Виолетта Нестерович, Валерий Зеленский
Описание: Группа молодых людей собирается на главную тусовку лета. Как и полагается, подготовка идёт полным ходом, но никто не догадывается, что судьба готовит им совершенно другую программу на афтепати. Оказавшись в эпицентре зомбоапокалипсиса, друзья обнаруживают, что «ходячие» охотятся только за теми, кто испытывает страх…
Доп. информация:
Качество: BDrip
Контейнер: MKV
Формат 3D: Anamorph OverUnder / Вертикальная анаморфная стереопара
Видео кодек: x264
Аудио кодек: AC-3
Видео: AVC, High@L4.1, 1920х1080, 23,976 кадра/сек, 11,8 Мбит/сек
Аудио: Русский / AC3 / 48 KHz / 5.1 ch / 640 Кбит/сек (Оригинал)
Субтитры: отсутствуют

Скриншоты

Media Info

Код:
Общее
Уникальный идентификатор                 : 195093380128756090092281996274643421479 (0x92C59E47374923C9B6F149FB024AC927)
Полное имя                               : H:\Source\ZombiKanikuly.2013.BD3DRip.Half.OU.x264.AC3.3D-RuGroup.mkv
Формат                                   : Matroska
Версия формата                           : Version 4 / Version 2
Размер файла                             : 8,45 Гбайт
Продолжительность                        : 1 ч. 35 м.
Общий поток                              : 12,7 Мбит/сек
Название фильма                          : Zомби каникулы 3D (2013) release 3D-RuGroup
Дата кодирования                         : UTC 2013-09-08 07:02:48
Программа кодирования                    : mkvmerge v6.3.0 ('You can't stop me!') built on Jul 19 2013 16:27:38
Библиотека кодирования                   : libebml v1.3.0 + libmatroska v1.4.1
Видео
Идентификатор                            : 1
Формат                                   : AVC
Формат/Информация                        : Advanced Video Codec
Профиль формата                          : High@L4.1
Параметр CABAC формата                   : Да
Параметр ReFrames формата                : 4 кадра
Идентификатор кодека                     : V_MPEG4/ISO/AVC
Продолжительность                        : 1 ч. 35 м.
Битрейт                                  : 11,8 Мбит/сек
Ширина                                   : 1920 пикселей
Высота                                   : 1080 пикселей
Соотношение сторон                       : 16:9
Режим частоты кадров                     : Постоянный
Частота кадров                           : 23,976 кадра/сек
Цветовое пространство                    : YUV
Субдискретизация насыщенности            : 4:2:0
Битовая глубина                          : 8 бит
Тип развёртки                            : Прогрессивная
Бит/(Пиксели*Кадры)                      : 0.238
Размер потока                            : 7,86 Гбайт (93%)
Заголовок                                : rip by StarStranger aka itsamna
Библиотека кодирования                   : x264 core 130 r2273 b3065e6
Настройки программы                      : cabac=1 / ref=4 / deblock=1:-3:-3 / analyse=0x3:0x133 / me=umh / subme=9 / psy=1 / psy_rd=1.00:0.15 / mixed_ref=1 / me_range=32 / chroma_me=1 / trellis=2 / 8x8dct=1 / cqm=0 / deadzone=21,11 / fast_pskip=0 / chroma_qp_offset=-3 / threads=12 / lookahead_threads=2 / sliced_threads=0 / nr=0 / decimate=1 / interlaced=0 / bluray_compat=0 / constrained_intra=0 / bframes=7 / b_pyramid=2 / b_adapt=2 / b_bias=0 / direct=3 / weightb=1 / open_gop=0 / weightp=2 / keyint=250 / keyint_min=23 / scenecut=40 / intra_refresh=0 / rc_lookahead=60 / rc=crf / mbtree=1 / crf=18.0 / qcomp=0.60 / qpmin=0 / qpmax=69 / qpstep=4 / vbv_maxrate=50000 / vbv_bufsize=62500 / crf_max=0.0 / nal_hrd=none / ip_ratio=1.40 / aq=1:0.90
Default                                  : Да
Forced                                   : Нет
Аудио
Идентификатор                            : 2
Формат                                   : AC-3
Формат/Информация                        : Audio Coding 3
Расширение режима                        : CM (complete main)
Параметр Endianness формата              : Big
Идентификатор кодека                     : A_AC3
Продолжительность                        : 1 ч. 35 м.
Вид битрейта                             : Постоянный
Битрейт                                  : 640 Кбит/сек
Каналы                                   : 6 каналов
Расположение каналов                     : Front: L C R, Side: L R, LFE
Частота                                  : 48,0 КГц
Битовая глубина                          : 16 бит
Метод сжатия                             : С потерями
Размер потока                            : 435 Мбайт (5%)
Язык                                     : Russian
Default                                  : Да
Forced                                   : Нет
Меню
00:00:00.000                             : :01
00:04:02.701                             : :02
00:11:07.458                             : :03
00:17:54.323                             : :04
00:24:02.566                             : :05
00:29:12.751                             : :06
00:37:03.513                             : :07
00:43:38.449                             : :08
00:48:27.321                             : :09
00:53:40.134                             : :10
00:59:47.083                             : :11
01:05:02.690                             : :12
01:11:05.761                             : :13
01:18:26.702                             : :14
01:23:19.411                             : :15
01:30:25.503                             : :16
--Релиз группы:

Проверено на встроенном плейере ТВ LG 42LW4500
--
Благодарности релизеру (7)

Торрент:

Статус:

Размер:

Зарегистрирован   [ 2013-09-08 11:36 ]

© закрыто правообладателем

8.45 GB

 
 Мнение о фильме (28)

1, 2  След.






Ой, что-то мне сдается, опять какой-нибудь шлак, русские не могут снимать такие фильмы, ну скачаем посмотрим, автор без обид!
 

По скринам опять говноконверт, профанация 3Д ради более дорогих билетов.
 

82maximus82, это не мне нужно обижаться, а Кириллу Кемниц, да и собственно ему не стоит - на правду не обижаются.
 

Zagruzin, угу...
 

StarStranger, Жаль, я надеялся что снимала та же команда или тем же методом что и "Лучший фильм 3Д" и "Ржевский ...", умеют же иногда.
 

такое российское дерьмо закрыли,смотрел не в зд!но эт ж полный финиш...
 

на кинозале давно уже есть,я и качать не стал...
 

особенно повеселила отметка "закрыто правообладателем"... я прям так "расстроился," что не могу скачать этот шедевр 3Дэ кинематографа)))))
 

такой фильм и даром не нужен )
 

Путин с Бушем в конце ваще убило
 

Как жаль что закрыли ))
 

это вынос мозга , вероятно закрыто правообладателем по указанию министерства здравоохранения , дабы люди не сходили с ума и не превращались в зомби !
 
евгения мурашко Профиль 09-Сен-2013 05:47

Вот это рейтинг.Он примерно соответствует фильму.Кто не посмотрел,тот ничего не потеряет,а даже выиграет свободное время.Я фильм не стал досматривать.
 

За этим гавном еще кто то следит, чтоб покупали?!!!
 

Чё и сюда правообладатели добрались *уки
 

Гы оно ещё и в 3D :D
 

Жаль, я бы посмотрел.
 

За этим гавном еще кто то следит, чтоб покупали?!!!
Те кто проплатили $$$ "антипиратский закон", чтобы их говницо покупали!
 

нееее,мне и моим детям здоровье дороже! спасибо за мартышкин труд!
 

запах этой фекалии теперь недоступен для народа, и что-то подсказывает мне, что так лучше.
слева от татушки стоит главный УПОРОТЫЙ хипстер занимавшийся "пародией на 3ДЭ-монтаж", а справа - главный заказчик Гоги.
Михалок вытирает слезки умиления...
 

Страница 1 из 2

1, 2  След.