Торренты   
 
 

 

Это не Охотники За Привидениями ХХХ 3D [2011 г., Anamorph OverUnder]

Рейтинг 3D:
2 голосов
8.5
Рейтинг фильма:
2 голосов
9.5
 
Вы должны быть авторизированы,
чтобы ставить оценки


Это не Охотники За Привидениями ХХХ 3D Год выпуска: 2011
Страна: США
Жанр: Feature Spoofs & Parodies Action, Big Budget, Comedy, Fantasy, Half OverUnder
Продолжительность: 01:52:36
Описание: A sexy satire that couldn't come soon enough! The classic spooky 80's spoof features a hot cast featuring Alec Knight, James Deen, Evan Stone, Tee Reel, Raven Alexis, Lily LaBeau, Joslyn James, Alexis Texas and Ron Jeremy! This 2 disc combo pack comes packed with a Blu-Ray 3D, Blu-Ray, DVD Standard, and DVD Analglyph! There is nothing scary about these lusty specters! Bustin' makes them feel good!
Формат 3D: Anamorph OverUnder
Качество: BDRip 1080p
Формат: MKV
Видео кодек: H.264
Аудио кодек: AC3
Видео: MPEG4 Video (H264) 1920x1080 (16:9) 23.976 fps ~ 7 581 Kbps
Аудио: Dolby AC3 48000Hz 2 ch stereo 224 Kbps
Формат 3D: Anamorph OverUnder / Горизонтальная анаморфная стереопара

Скриншоты










Media Info

General
Unique ID : 233246927283892162831303282846661114297 (0xAF79B96327B16C4085611642D89079B9)
Format : Matroska
Format version : Version 2
File size : 6.26 GiB
Duration : 1h 52mn
Overall bit rate : 7 964 Kbps
Encoded date : UTC 2011-06-03 16:32:28
Writing application : mkvmerge v4.3.0 ('Escape from the Island') сборка от Sep 5 2010 10:30:51
Writing library : libebml v1.0.0 + libmatroska v1.0.0
Video
ID : 1
Format : AVC
Format/Info : Advanced Video Codec
Format profile : High@L4.0
Format settings, CABAC : Yes
Format settings, ReFrames : 4 frames
Codec ID : V_MPEG4/ISO/AVC
Duration : 1h 52mn
Bit rate : 7 581 Kbps
Nominal bit rate : 8 000 Kbps
Width : 1 920 pixels
Height : 1 080 pixels
Display aspect ratio : 16:9
Frame rate mode : Variable
Frame rate : 23.976 fps
Color space : YUV
Chroma subsampling : 4:2:0
Bit depth : 8 bits
Scan type : Progressive
Bits/(Pixel*Frame) : 0.152
Stream size : 5.96 GiB (95%)
Writing library : x264 core 107 r1745 4785e8e
Encoding settings : cabac=1 / ref=3 / deblock=1:0:0 / analyse=0x3:0x113 / me=hex / subme=7 / psy=1 / psy_rd=1.00:0.00 / mixed_ref=1 / me_range=16 / chroma_me=1 / trellis=1 / 8x8dct=1 / cqm=0 / deadzone=21,11 / fast_pskip=1 / chroma_qp_offset=-2 / threads=8 / sliced_threads=0 / nr=0 / decimate=1 / interlaced=0 / constrained_intra=0 / bframes=3 / b_pyramid=2 / b_adapt=1 / b_bias=0 / direct=1 / weightb=1 / open_gop=0 / weightp=2 / keyint=250 / keyint_min=25 / scenecut=40 / intra_refresh=0 / rc_lookahead=40 / rc=abr / mbtree=1 / bitrate=8000 / ratetol=1.0 / qcomp=0.60 / qpmin=10 / qpmax=51 / qpstep=4 / ip_ratio=1.41 / aq=1:1.00
Default : Yes
Forced : No
Audio
ID : 2
Format : AC-3
Format/Info : Audio Coding 3
Mode extension : CM (complete main)
Codec ID : A_AC3
Duration : 1h 52mn
Bit rate mode : Constant
Bit rate : 224 Kbps
Channel(s) : 2 channels
Channel positions : Front: L R
Sampling rate : 48.0 KHz
Bit depth : 16 bits
Compression mode : Lossy
Stream size : 180 MiB (3%)
Default : Yes
Forced : No
Благодарности релизеру (0)

Торрент:

Статус:

Размер:

Зарегистрирован   [ 2013-09-09 13:54 ]

D повтор

6.26 GB