Торренты   
 
 

 

Zомби каникулы (Кирилл Кемниц) [2013 г., BDRip, Full OverUnder]

Рейтинг 3D:
8 голосов
1.4
Рейтинг фильма:
10 голосов
1.0
 
Вы должны быть авторизированы,
чтобы ставить оценки


© Закрыто правообладателем
Год выпуска: 2013
Страна: Россия
Жанр: ужасы, триллер, комедия
Продолжительность: 01:35:07
Перевод: Не требуется
Режиссер: Кирилл Кемниц
В ролях: Юлия Волкова, Михаил Ефремов, Антон Зиновьев, Ирина Хануник-Ромбальская, Александр Ефремов, Дарья Торчилина, Александр Левенчук, Ольга Доценко, Виолетта Нестерович, Валерий Зеленский
Описание: Группа молодых людей собирается на главную тусовку лета. Как и полагается, подготовка идёт полным ходом, но никто не догадывается, что судьба готовит им совершенно другую программу на афтепати. Оказавшись в эпицентре зомбоапокалипсиса, друзья обнаруживают, что «ходячие» охотятся только за теми, кто испытывает страх…
Релиз группы:
Формат 3D: OverUnder BDRip, Full
Видео: AVC, High@L4.0, 1920х2160, 23,976 кадра/сек, 24.0 Mbps
Аудио: Rus, DTS, 6 каналов, 1510 Кбит/сек, 48,0 КГц

Скриншоты




Media Info

General
Unique ID : 176656182562474855421141017594153675702 (0x84E6BE416D0B6FE1984D92E8F0702BB6)
Complete name : E:\STEREO\Zомби каникулы_1080p_Rip by Dag13.mkv
Format : Matroska
Format version : Version 2
File size : 17.3 GiB
Duration : 1h 35mn
Overall bit rate : 26.1 Mbps
Encoded date : UTC 2013-09-10 07:42:05
Writing application : mkvmerge v3.4.0 ('Rapunzel') сборка от May 15 2010 09:38:20
Writing library : libebml v0.8.0 + libmatroska v0.9.0
Video
ID : 1
Format : AVC
Format/Info : Advanced Video Codec
Format profile : High@L5.0
Format settings, CABAC : Yes
Format settings, ReFrames : 4 frames
Codec ID : V_MPEG4/ISO/AVC
Duration : 1h 35mn
Bit rate : 24.0 Mbps
Width : 1 920 pixels
Height : 2 160 pixels
Display aspect ratio : 0.889
Frame rate : 23.976 fps
Color space : YUV
Chroma subsampling : 4:2:0
Bit depth : 8 bits
Scan type : Progressive
Bits/(Pixel*Frame) : 0.242
Stream size : 16.0 GiB (92%)
Title : Rip by Dag13
Writing library : x264 core 116 r2074 2641b9e
Encoding settings : cabac=1 / ref=4 / deblock=1:-3:-3 / analyse=0x3:0x113 / me=umh / subme=9 / psy=1 / psy_rd=1.00:0.00 / mixed_ref=1 / me_range=16 / chroma_me=1 / trellis=2 / 8x8dct=1 / cqm=0 / deadzone=21,11 / fast_pskip=1 / chroma_qp_offset=-2 / threads=9 / sliced_threads=0 / nr=0 / decimate=1 / interlaced=0 / bluray_compat=0 / constrained_intra=0 / bframes=6 / b_pyramid=2 / b_adapt=2 / b_bias=0 / direct=3 / weightb=1 / open_gop=0 / weightp=2 / keyint=250 / keyint_min=23 / scenecut=40 / intra_refresh=0 / rc_lookahead=40 / rc=crf / mbtree=1 / crf=18.0 / qcomp=0.60 / qpmin=1 / qpmax=69 / qpstep=4 / ip_ratio=1.40 / aq=1:1.00
Language : English
Default : No
Forced : No
Audio
ID : 2
Format : DTS
Format/Info : Digital Theater Systems
Codec ID : A_DTS
Duration : 1h 35mn
Bit rate mode : Constant
Bit rate : 1 510 Kbps
Channel(s) : 6 channels
Channel positions : Front: L C R, Side: L R, LFE
Sampling rate : 48.0 KHz
Bit depth : 16 bits
Compression mode : Lossy
Stream size : 1.00 GiB (6%)
Language : Russian
Default : Yes
Forced : No
На встроенных ТВ-плейерах показывать НЕ будет!!!
Благодарности релизеру (1)

Торрент:

Статус:

Размер:

Зарегистрирован   [ 2013-09-10 13:43 ]

© закрыто правообладателем

17.32 GB

 
 Мнение о фильме (3)





Это откровенное УГ еще какие-то и обглодатели закрывают? )))) Куда мир катится...
 

Согласен с предыдущим оратором, щас зайду к правооблададтелям и поругаюсь. Такого откровенного говна, я давно не видел.Хватило на 7-10 минут и выключил.
 

Спасибо правообладателям что оградили нас от шлака