Торренты   
 
 

 

Boйнa миpoв Z в 3Д / Wоrld Wаr Z 3D (Mapк Фopcтep / Маrс Fоrstеr) [2013, Ужасы, Фантастика, Боевик, BDrip-AVC] (Театральная версия)Anamorph OverUnder]лицензия

Рейтинг 3D:
363 голосов
7.0
Рейтинг фильма:
369 голосов
6.9
 
Вы должны быть авторизированы,
чтобы ставить оценки


Война миров Z
World War Z

(Театральная версия / Theatrical Cut)
Год выпуска: 2013
Страна: США (Paramount Pictures, Plan B Entertainment, Skydance Productions, Hemisphere Media Capital, GK Films)
Жанр: Ужасы, Фантастика, Боевик
Продолжительность: 01:56:02
Перевод: Профессиональный дублированный (Лицензия)
Режиссер: Марк Форстер / Marc Forster
В ролях:
Gerry Lane - Брэд Питт
Karin Lane - Мирей Инос
Segen - Даниэла Картес
Капитан Speke - Джеймс Бэдж Дэйл
Jurgen Warmbrunn - Люди Букен
Парашютист - Мэттью Фокс
Thierry Umutoni - Фана Мокоэна
Экс-агент ЦРУ - Дэвид Морс
Andrew Fassbach - Элиес Габел
Доктор В.О.З. - Питер Капальди
Доктор В.О.З. - Пьерфранческо Фавино
Доктор В.О.З. - Рут Негга
Доктор В.О.З.. - Мориц Бляйбтрой
Описание:
Сотрудник ООН Джерри Лэйн наперегонки со временем пытается остановить заражение, способное полностью истребить человечество.
Доп. информация:
Театральная версия на семь минут короче расширенной.--Премьера: Премьера: 2 июня 2013 (27 июня 2013)
Бюджет: $190 000 000
Кассовые сборы в России: $24 670 141
Релиз на Blu-Ray (DVD) : 30 сентября 2013

. .
Проверено на встроенном плейере ТВ LG LW 650S
--Качество: BDrip
Контейнер: MKV
Формат 3D: Anamorph OverUnder / Вертикальная анаморфная стереопара
Порядок ракурсов: левый ракурс первый
Видео кодек: x264
Аудио кодек: AC3
Видео: AVC / 23,976 fps / 1920х1080p / 7478 Kbps
Аудио:
#1 - Русский / AC3 / 48 KHz / 5.1 ch / 640 Kbps (Дубляж - Paramount Pictures)
#2 - Английский / AC3 / 48 KHz / 5.1 ch / 640 Kbps (Original)
Субтитры внешние (SRT UTF-8):
#1 - English Full
#2 - English SDH

Log x264

Media Info

Общее
Уникальный идентификатор : 190009359055890362548557846555791117522 (0x8EF278AFC3C390FBAD9A94CD176ACCD2)
Полное имя : E:\WorldWarZ(2013)3D-halfOU(m@rik05)TheatricalCut\WorldWarZ(2013)3D-halfOU(m@rik05)TheatricalCut.mkv
Формат : Matroska
Версия формата : Version 4 / Version 2
Размер файла : 7,24 Гбайт
Продолжительность : 1 ч. 56 м.
Общий поток : 8932 Кбит/сек
Название фильма : World War Z 3D (2013) 3D-RuGroup (m@rik05)
Дата кодирования : UTC 2013-09-14 16:09:29
Программа кодирования : mkvmerge v6.3.0 ('You can't stop me!') built on Jun 28 2013 20:09:41
Библиотека кодирования : libebml v1.3.0 + libmatroska v1.4.0
Видео
Идентификатор : 1
Формат : AVC
Формат/Информация : Advanced Video Codec
Профиль формата : High@L4.1
Параметр CABAC формата : Да
Параметр ReFrames формата : 4 кадра
Идентификатор кодека : V_MPEG4/ISO/AVC
Продолжительность : 1 ч. 56 м.
Битрейт : 7475 Кбит/сек
Ширина : 1920 пикселей
Высота : 1080 пикселей
Соотношение сторон : 16:9
Режим частоты кадров : Постоянный
Частота кадров : 23,976 кадра/сек
Цветовое пространство : YUV
Субдискретизация насыщенности : 4:2:0
Битовая глубина : 8 бит
Тип развёртки : Прогрессивная
Бит/(Пиксели*Кадры) : 0.150
Размер потока : 6,06 Гбайт (84%)
Заголовок : BDrip (by m@rik05)
Библиотека кодирования : x264 core 116 r2074 2641b9e
Настройки программы : cabac=1 / ref=4 / deblock=1:-3:-3 / analyse=0x3:0x113 / me=umh / subme=9 / psy=1 / psy_rd=1.00:0.15 / mixed_ref=1 / me_range=32 / chroma_me=1 / trellis=2 / 8x8dct=1 / cqm=0 / deadzone=21,11 / fast_pskip=1 / chroma_qp_offset=-3 / threads=12 / sliced_threads=0 / nr=0 / decimate=1 / interlaced=0 / bluray_compat=0 / constrained_intra=0 / bframes=6 / b_pyramid=2 / b_adapt=2 / b_bias=0 / direct=3 / weightb=1 / open_gop=0 / weightp=2 / keyint=250 / keyint_min=23 / scenecut=40 / intra_refresh=0 / rc_lookahead=60 / rc=crf / mbtree=1 / crf=17.0 / qcomp=0.60 / qpmin=10 / qpmax=51 / qpstep=4 / vbv_maxrate=40000 / vbv_bufsize=30000 / crf_max=0.0 / nal_hrd=none / frame-packing=4 / ip_ratio=1.40 / aq=1:0.70
Язык : English
Default : Да
Forced : Нет
Аудио #1
Идентификатор : 2
Формат : AC-3
Формат/Информация : Audio Coding 3
Расширение режима : CM (complete main)
Параметр Endianness формата : Big
Идентификатор кодека : A_AC3
Продолжительность : 1 ч. 56 м.
Вид битрейта : Постоянный
Битрейт : 640 Кбит/сек
Каналы : 6 каналов
Расположение каналов : Front: L C R, Side: L R, LFE
Частота : 48,0 КГц
Битовая глубина : 16 бит
Метод сжатия : С потерями
Размер потока : 531 Мбайт (7%)
Заголовок : AC3 / 5.1 ch / 640 kbps / (Дубляж )
Язык : Russian
Default : Да
Forced : Да
Аудио #2
Идентификатор : 3
Формат : AC-3
Формат/Информация : Audio Coding 3
Расширение режима : CM (complete main)
Параметр Endianness формата : Big
Идентификатор кодека : A_AC3
Продолжительность : 1 ч. 56 м.
Вид битрейта : Постоянный
Битрейт : 640 Кбит/сек
Каналы : 6 каналов
Расположение каналов : Front: L C R, Side: L R, LFE
Частота : 48,0 КГц
Битовая глубина : 16 бит
Метод сжатия : С потерями
Размер потока : 531 Мбайт (7%)
Заголовок : AC3 / 5.1 ch / 640 kbps / оригинал
Язык : English
Default : Нет
Forced : Нет
Меню
00:00:00.000 : en:00:00:00.000
00:05:05.180 : en:00:05:05.180
00:13:04.659 : en:00:13:04.659
00:20:31.188 : en:00:20:31.188
00:27:02.579 : en:00:27:02.579
00:32:38.039 : en:00:32:38.039
00:39:35.331 : en:00:39:35.331
00:49:06.152 : en:00:49:06.152
00:55:22.027 : en:00:55:22.027
01:01:41.239 : en:01:01:41.239
01:09:18.654 : en:01:09:18.654
01:17:03.035 : en:01:17:03.035
01:22:09.842 : en:01:22:09.842
01:27:51.558 : en:01:27:51.558
01:36:41.587 : en:01:36:41.587
01:45:14.099 : en:01:45:14.099
01:48:46.645 : en:01:48:46.645
15.09.2013 - Релиз обновлён - русская дорога заменена на лицензию, добавлены внешние субтитры.
Желающие, скачайте заново торрент-файл.
Остальные раздачи этого фильма (4)
Благодарности релизеру (49)

Торрент:

Статус:

Размер:

Зарегистрирован   [ 2013-09-15 00:46 ]

проверено

7.24 GB

 
 Мнение о фильме (136)

Пред.  1, 2, 3, 4, 5, 6, 7  След.






евгения мурашко, а мне и книга не понравилась. Там 90% текста - это описание мест, не важных географических и личностных особенностей, болтовни. Приходится постоянно ждать, когда же начнется действие, когда герои столкнуться с проблемой и как её будут решать - ведь это самое интересное в зомби-сеттинге. А когда действие начинается, то оно выходит на половину страницы простенького сюжета. И тут конец, начинается следующий эпизод с другими действующими лицами. Опять болтовня незнакомых людей.
 

Что-то уже было похожее ,например "Обитель зла" но тот фильм намного круче .
 

а кто тут вылеты видел? объясните на какой минуте ловить))) говно фильм
 

Фильм не плох........., но одноразовый!!!
Эффект 3D - ok))
Боюсь быть продолжению(((
 

Admin в принципе прав . Если хотите действия , ознакомтесь с Перерождение . Автор Джастин Кронин .По нему в скором времени тоже будет фильм , проект обьявлен (если опять не испоганят) . Причем это первый эпизод трилогии , второй еще не переведен ,третий у автора в работе .
 
евгения мурашко Профиль 15-Сен-2013 00:10

Dag13, а будет с дорогой лицензионной?
 

как то скучновато и нудно! ну нет!
 

а кто тут вылеты видел? объясните на какой минуте ловить))) говно фильм
а падающие зомби, а авария самалета,а вертолеты))
 

евгения мурашко, хорошо, спасибо. Посмотрю что за вещь, почитаю отзывы.
 

Неплохой фильм, 3д в норме.
 

Спасибо за раздачу, но фильм шляпа полная, такого бреда я давно не видел. Бюджет фильма видно, разворовали половину, у наших научились. 3D просто ни какое, ни глубины, не вылетов. Но автору спасибо! Радует одно, что не поперся в кинотеатр :)
 

а мне фильм понравился и даже очень,несколько раз пересматривал,а вот 3D я там неувидел,ну слабенькое оно тут
 

Хороший, качественный фильм. Определенно понравился. 3D на уровне.
 

спасибо автору!!!!качаем и смотрим) фильм смотрел в 2D-понравился!
 

3d вообще ни о чём
 

те которые не видят тут 3Д,могу поспорить что смотрите на телевизорах. Хотя то что оно тут среднее и хотелось бы лучше то это да.
 

те которые не видят тут 3Д,могу поспорить что смотрите на телевизорах.
И на телеках все ОК ! У меня Панасоник -радуюсь и наслаждаюсь просмотром !
 

Фильм полная лажа
 

Ожидал большего, так в целом фильм не плох на один раз, за раздачу спасибо
 

Фильм не шедевр на оценку 4 из 5
 

Страница 2 из 7

Пред.  1, 2, 3, 4, 5, 6, 7  След.