Торренты   
 
 

 

Война миров Z / World War Z (Марк Форстер / Marc Forster) [2013 г., Anamorph SideBySide]

Рейтинг 3D:
363 голосов
7.0
Рейтинг фильма:
369 голосов
6.9
 
Вы должны быть авторизированы,
чтобы ставить оценки


Война миров Z / World War Z
Год выпуска: 2013
Страна: США (Paramount Pictures, Plan B Entertainment, Skydance Productions, Hemisphere Media Capital, GK Films)
Жанр: Ужасы, Фантастика, Боевик
Продолжительность: 01:56:02
Перевод: Профессиональный (полное дублирование)
Режиссер: Марк Форстер / Marc Forster
В ролях: Брэд Питт, Мирей Инос, Джеймс Бэдж Дэйл, Мэттью Фокс, Даниэлла Кертеш, Луди Бокен, Фана Мокоэна, Дэвид Морc, Элайес Габел, Питер Капальди
Описание: Сотрудник ООН Джерри Лэйн наперегонки со временем пытается остановить заражение, способное полностью истребить человечество.
Формат 3D: Anamorph SideBySide / Горизонтальная анаморфная пара
Порядок ракурсов: левый ракурс первый
Видео: AVC / 23,976 fps / 1920х1080p / 10000 Kbps
Аудио:
#1 - Русский / AC3 / 48 KHz / 5.1 ch / 640 Kbps (Дублированный)
#2 - Английский / DTS / 48 KHz / 5.1 ch / 1536 Kbps (Original)

Скриншоты



Media Info

General
Unique ID : 185783388948665606154601773708726491732 (0x8BC4944618DE9BB9B3826478F9B7DA54)
Complete name : D:\Downloads\1World.War.Z 2013.Theatrical.Cut.3D.BluRay.HSBS.1080p.CMEGRoup.mkv
Format : Matroska
Format version : Version 3 / Version 2
File size : 9.85 GiB
Duration : 1h 56mn
Overall bit rate : 12.1 Mbps
Movie name : CMEGRoup
Encoded date : UTC 2013-09-13 12:43:11
Writing application : mkvmerge v6.3.0 ('You can't stop me!') built on Jun 28 2013 20:09:41
Writing library : libebml v1.3.0 + libmatroska v1.4.0
Attachment : Yes / Yes
Video
ID : 1
Format : AVC
Format/Info : Advanced Video Codec
Format profile : High@L4.1
MultiView_Count : 2
MultiView_Layout : Side by Side (left eye first)
Format settings, CABAC : Yes
Format settings, ReFrames : 4 frames
Codec ID : V_MPEG4/ISO/AVC
Duration : 1h 56mn
Bit rate : 10 000 Kbps
Width : 1 920 pixels
Height : 1 080 pixels
Display aspect ratio : 16:9
Frame rate mode : Constant
Frame rate : 23.976 fps
Color space : YUV
Chroma subsampling : 4:2:0
Bit depth : 8 bits
Scan type : Progressive
Bits/(Pixel*Frame) : 0.201
Stream size : 7.91 GiB (80%)
Title : 3D Half Side by Side, Left first
Writing library : x264 core 130 r2273 b3065e6
Encoding settings : cabac=1 / ref=4 / deblock=1:-3:-3 / analyse=0x3:0x113 / me=umh / subme=10 / psy=1 / psy_rd=1.05:0.10 / mixed_ref=1 / me_range=48 / chroma_me=1 / trellis=2 / 8x8dct=1 / cqm=0 / deadzone=21,11 / fast_pskip=0 / chroma_qp_offset=-2 / threads=18 / lookahead_threads=1 / sliced_threads=0 / nr=0 / decimate=1 / interlaced=0 / bluray_compat=0 / constrained_intra=0 / bframes=6 / b_pyramid=2 / b_adapt=2 / b_bias=0 / direct=3 / weightb=1 / open_gop=0 / weightp=2 / keyint=250 / keyint_min=23 / scenecut=40 / intra_refresh=0 / rc_lookahead=40 / rc=2pass / mbtree=0 / bitrate=10000 / ratetol=2.0 / qcomp=0.70 / qpmin=0 / qpmax=69 / qpstep=4 / cplxblur=20.0 / qblur=0.5 / vbv_maxrate=35000 / vbv_bufsize=30000 / nal_hrd=none / ip_ratio=1.40 / pb_ratio=1.30 / aq=2:1.00
Default : Yes
Forced : No
Audio #1
ID : 2
Format : AC-3
Format/Info : Audio Coding 3
Mode extension : CM (complete main)
Format settings, Endianness : Big
Codec ID : A_AC3
Duration : 1h 56mn
Bit rate mode : Constant
Bit rate : 640 Kbps
Channel(s) : 6 channels
Channel positions : Front: L C R, Side: L R, LFE
Sampling rate : 48.0 KHz
Bit depth : 16 bits
Compression mode : Lossy
Stream size : 531 MiB (5%)
Language : Russian
Default : Yes
Forced : No
Audio #2
ID : 3
Format : DTS
Format/Info : Digital Theater Systems
Mode : 16
Format settings, Endianness : Big
Codec ID : A_DTS
Duration : 1h 56mn
Bit rate mode : Constant
Bit rate : 1 509 Kbps
Channel(s) : 6 channels
Channel positions : Front: L C R, Side: L R, LFE
Sampling rate : 48.0 KHz
Bit depth : 24 bits
Compression mode : Lossy
Stream size : 1.22 GiB (12%)
Language : English
Default : No
Forced : No
Menu
00:00:00.000 : :1 - 0:00:00
00:05:05.180 : :2 - 0:05:05
00:13:04.659 : :3 - 0:13:04
00:20:31.188 : :4 - 0:20:31
00:27:02.579 : :5 - 0:27:02
00:32:38.039 : :6 - 0:32:38
00:39:35.331 : :7 - 0:39:35
00:49:06.152 : :8 - 0:49:06
00:55:22.027 : :9 - 0:55:22
01:01:41.239 : :10 - 1:01:41
01:09:18.654 : :11 - 1:09:18
01:17:03.035 : :12 - 1:17:03
01:22:09.842 : :13 - 1:22:09
01:27:51.558 : :14 - 1:27:51
01:36:41.587 : :15 - 1:36:41
01:45:14.099 : :16 - 1:45:14
01:48:46.645 : :17 - 1:48:46
Остальные раздачи этого фильма (4)
Благодарности релизеру (41)

Торрент:

Статус:

Размер:

Зарегистрирован   [ 2013-09-14 14:34 ]

проверено

9.85 GB

 
 Мнение о фильме (136)

Пред.  1, 2, 3, 4, 5, 6, 7  След.






евгения мурашко, а мне и книга не понравилась. Там 90% текста - это описание мест, не важных географических и личностных особенностей, болтовни. Приходится постоянно ждать, когда же начнется действие, когда герои столкнуться с проблемой и как её будут решать - ведь это самое интересное в зомби-сеттинге. А когда действие начинается, то оно выходит на половину страницы простенького сюжета. И тут конец, начинается следующий эпизод с другими действующими лицами. Опять болтовня незнакомых людей.
 

Что-то уже было похожее ,например "Обитель зла" но тот фильм намного круче .
 

а кто тут вылеты видел? объясните на какой минуте ловить))) говно фильм
 

Фильм не плох........., но одноразовый!!!
Эффект 3D - ok))
Боюсь быть продолжению(((
 

Admin в принципе прав . Если хотите действия , ознакомтесь с Перерождение . Автор Джастин Кронин .По нему в скором времени тоже будет фильм , проект обьявлен (если опять не испоганят) . Причем это первый эпизод трилогии , второй еще не переведен ,третий у автора в работе .
 
евгения мурашко Профиль 15-Сен-2013 00:10

Dag13, а будет с дорогой лицензионной?
 

как то скучновато и нудно! ну нет!
 

а кто тут вылеты видел? объясните на какой минуте ловить))) говно фильм
а падающие зомби, а авария самалета,а вертолеты))
 

евгения мурашко, хорошо, спасибо. Посмотрю что за вещь, почитаю отзывы.
 

Неплохой фильм, 3д в норме.
 

Спасибо за раздачу, но фильм шляпа полная, такого бреда я давно не видел. Бюджет фильма видно, разворовали половину, у наших научились. 3D просто ни какое, ни глубины, не вылетов. Но автору спасибо! Радует одно, что не поперся в кинотеатр :)
 

а мне фильм понравился и даже очень,несколько раз пересматривал,а вот 3D я там неувидел,ну слабенькое оно тут
 

Хороший, качественный фильм. Определенно понравился. 3D на уровне.
 

спасибо автору!!!!качаем и смотрим) фильм смотрел в 2D-понравился!
 

3d вообще ни о чём
 

те которые не видят тут 3Д,могу поспорить что смотрите на телевизорах. Хотя то что оно тут среднее и хотелось бы лучше то это да.
 

те которые не видят тут 3Д,могу поспорить что смотрите на телевизорах.
И на телеках все ОК ! У меня Панасоник -радуюсь и наслаждаюсь просмотром !
 

Фильм полная лажа
 

Ожидал большего, так в целом фильм не плох на один раз, за раздачу спасибо
 

Фильм не шедевр на оценку 4 из 5
 

Страница 2 из 7

Пред.  1, 2, 3, 4, 5, 6, 7  След.