Торренты   
 
 


Русалочка / Thе Littlе Mеrmаid (Рон Клементс, Джон Маскер) [1989 г., BDrip, Anamorph OverUnder]

Рейтинг 3D:
28 голосов
6.1
Рейтинг фильма:
27 голосов
7.7
 
Вы должны быть авторизированы,
чтобы ставить оценки


Русалочка / The Little Mermaid Год выпуска: 1989
Страна: США
Жанр: мультфильм, мюзикл, фэнтези, мелодрама, семейный
Продолжительность: 1:22:48
Перевод: Профессиональный (полное дублирование)
Режиссер: Рон Клементс, Джон Маскер
В ролях: Джоди Бенсон (Ariel / Vanessa, озвучка), Пэт Кэрролл (Ursula, озвучка), Рене Обержонуа (Louis, озвучка), Кристофер Дэниэл Барнс (Eric, озвучка), Пэдди Эдвардс (Flotsam & Jetsam, озвучка), Бадди Хэкетт (Scuttle, озвучка), Джейсон Марин (Flounder, озвучка), Кеннет Марс (Triton, озвучка), Эди МакКлёрг (Carlotta, озвучка), Уилл Райан (Seahorse, озвучка), Бен Райт (Grimsby, озвучка), Сэмюэл Э. Райт (Sebastian, озвучка)
Описание: Таинственные глубины моря хранят немало тайн, а обитатели океана могут рассказать множество удивительных историй. И самой невероятной из них была и остаётся история русалочки Ариэль. Дочь могущественного царя подводного мира Тритона, она однажды влюбляется в прекрасного и мужественного принца. Но разве они могут быть вместе — земной человек и морская дева? Однако настоящие чувства преодолевают любые преграды. Ради своей любви Ариэль готова пойти на всё. Даже если для обретения своего счастья ей навсегда придётся покинуть родной океан и навеки стать земной девушкой…
Качество: BDrip
Контейнер: MKV
Формат 3D: Anamorph OverUnder / Вертикальная анаморфная стереопара
Видео кодек: x264
Аудио кодек: AC-3
Видео: AVC, High@L4.1, 1920х1080, 23,976 кадра/сек, 9761 Кбит/сек
Аудио:
Rus, AC-3, 6 каналов, 640 Кбит/сек, 48,0 КГц | Дубляж
Eng, AC-3, 6 каналов, 640 Кбит/сек, 48,0 КГц
Субтитры: русские, английские

Скриншоты


Media Info

Код:
Общее
Уникальный идентификатор                 : 186764803992901664133190755770351867717 (0x8C8197C575D28C28890B0D8595A1D745)
Полное имя                               : D:\TheLittleMermaid.3D.1989.BD3DRip.Half.OU.x264.AC3.3D-RuGroup.mkv
Формат                                   : Matroska
Версия формата                           : Version 4 / Version 2
Размер файла                             : 6,52 Гбайт
Продолжительность                        : 1 ч. 22 м.
Общий поток                              : 11,3 Мбит/сек
Название фильма                          : The Little Mermaid (1989) release 3D-RuGroup
Дата кодирования                         : UTC 2013-09-17 04:32:29
Программа кодирования                    : mkvmerge v6.3.0 ('You can't stop me!') built on Jul 19 2013 16:27:38
Библиотека кодирования                   : libebml v1.3.0 + libmatroska v1.4.1
Видео
Идентификатор                            : 1
Формат                                   : AVC
Формат/Информация                        : Advanced Video Codec
Профиль формата                          : High@L4.1
Параметр CABAC формата                   : Да
Параметр ReFrames формата                : 4 кадра
Идентификатор кодека                     : V_MPEG4/ISO/AVC
Продолжительность                        : 1 ч. 22 м.
Битрейт                                  : 9761 Кбит/сек
Ширина                                   : 1920 пикселей
Высота                                   : 1080 пикселей
Соотношение сторон                       : 16:9
Режим частоты кадров                     : Постоянный
Частота кадров                           : 23,976 кадра/сек
Цветовое пространство                    : YUV
Субдискретизация насыщенности            : 4:2:0
Битовая глубина                          : 8 бит
Тип развёртки                            : Прогрессивная
Бит/(Пиксели*Кадры)                      : 0.196
Размер потока                            : 5,65 Гбайт (87%)
Заголовок                                : rip by  itsamna aka StarStranger
Библиотека кодирования                   : x264 core 130 r2273 b3065e6
Настройки программы                      : cabac=1 / ref=4 / deblock=1:-3:-3 / analyse=0x3:0x133 / me=umh / subme=10 / psy=1 / psy_rd=1.00:0.00 / mixed_ref=1 / me_range=32 / chroma_me=1 / trellis=2 / 8x8dct=1 / cqm=0 / deadzone=21,11 / fast_pskip=0 / chroma_qp_offset=-2 / threads=12 / lookahead_threads=2 / sliced_threads=0 / nr=0 / decimate=1 / interlaced=0 / bluray_compat=0 / constrained_intra=0 / bframes=7 / b_pyramid=2 / b_adapt=2 / b_bias=0 / direct=3 / weightb=1 / open_gop=0 / weightp=2 / keyint=250 / keyint_min=23 / scenecut=40 / intra_refresh=0 / rc_lookahead=60 / rc=crf / mbtree=1 / crf=18.0 / qcomp=0.60 / qpmin=0 / qpmax=69 / qpstep=4 / vbv_maxrate=50000 / vbv_bufsize=62500 / crf_max=0.0 / nal_hrd=none / ip_ratio=1.40 / aq=1:0.90
Default                                  : Да
Forced                                   : Нет
Аудио #1
Идентификатор                            : 2
Формат                                   : AC-3
Формат/Информация                        : Audio Coding 3
Расширение режима                        : CM (complete main)
Параметр Endianness формата              : Big
Идентификатор кодека                     : A_AC3
Продолжительность                        : 1 ч. 22 м.
Вид битрейта                             : Постоянный
Битрейт                                  : 640 Кбит/сек
Каналы                                   : 6 каналов
Расположение каналов                     : Front: L C R, Side: L R, LFE
Частота                                  : 48,0 КГц
Битовая глубина                          : 16 бит
Метод сжатия                             : С потерями
Размер потока                            : 379 Мбайт (6%)
Заголовок                                : Dub
Язык                                     : Russian
Default                                  : Да
Forced                                   : Нет
Аудио #2
Идентификатор                            : 3
Формат                                   : AC-3
Формат/Информация                        : Audio Coding 3
Расширение режима                        : CM (complete main)
Параметр Endianness формата              : Big
Идентификатор кодека                     : A_AC3
Продолжительность                        : 1 ч. 22 м.
Вид битрейта                             : Постоянный
Битрейт                                  : 640 Кбит/сек
Каналы                                   : 6 каналов
Расположение каналов                     : Front: L C R, Side: L R, LFE
Частота                                  : 48,0 КГц
Битовая глубина                          : 16 бит
Метод сжатия                             : С потерями
Размер потока                            : 379 Мбайт (6%)
Заголовок                                : Original
Язык                                     : English
Default                                  : Нет
Forced                                   : Нет
Текст #1
Идентификатор                            : 4
Формат                                   : UTF-8
Идентификатор кодека                     : S_TEXT/UTF8
Идентификатор кодека/Информация          : UTF-8 Plain Text
Язык                                     : Russian
Default                                  : Нет
Forced                                   : Нет
Текст #2
Идентификатор                            : 5
Формат                                   : UTF-8
Идентификатор кодека                     : S_TEXT/UTF8
Идентификатор кодека/Информация          : UTF-8 Plain Text
Язык                                     : English
Default                                  : Нет
Forced                                   : Нет
Текст #3
Идентификатор                            : 6
Формат                                   : UTF-8
Идентификатор кодека                     : S_TEXT/UTF8
Идентификатор кодека/Информация          : UTF-8 Plain Text
Язык                                     : English
Default                                  : Нет
Forced                                   : Нет
Меню
00:00:00.000                             : en:"Fathoms Below"
00:02:17.846                             : en:Main Titles
00:03:47.185                             : en:Sebastian's Concert
00:05:51.643                             : en:The Sunken Ship
00:08:56.035                             : en:Scuttle
00:10:48.982                             : en:Ursula Watches Ariel
00:15:01.359                             : en:"Part of Your World"
00:19:04.685                             : en:To the Surface
00:22:18.462                             : en:Storm at Sea
00:25:15.723                             : en:Eric Is Saved
00:29:06.244                             : en:"Under the Sea"
00:32:56.057                             : en:Sebastian and King Triton
00:34:21.476                             : en:Ariel's Hidden Treasure
00:38:49.160                             : en:Ursula's Lair
00:40:00.690                             : en:"Poor Unfortunate Souls"
00:41:38.413                             : en:Ursula's Deal
00:45:42.615                             : en:In Eric's Kingdom
00:50:57.054                             : en:Dinner in the Castle
00:52:22.556                             : en:"Les Poissons"
00:57:21.772                             : en:A Tour of the Kingdom
00:59:35.947                             : en:"Kiss the Girl"
01:02:29.204                             : en:Ursula Takes Charge
01:05:45.650                             : en:The Wedding Ship
01:10:04.742                             : en:Sunset on the Third Day
01:12:48.739                             : en:Ursula's Wrath
01:15:33.154                             : en:Happy Ending
01:18:19.403                             : en:End Credits
--Релиз группы:

Проверено на встроенном плейере ТВ LG 42LW4500
--
Остальные раздачи этого фильма (2)
Благодарности релизеру (37)

Торрент:

Статус:

Размер:

Зарегистрирован   [ 2013-09-17 09:42 ]

проверено

6.52 GB

 
 Мнение о фильме (17)





Спасибо за релиз, один из любимых мультов , с удовольствием посмотрю в 3д)))
 

Большое спасибо!Доча в восторге
 
Вячеслав Старчевский Профиль 19-Сен-2013 16:23

в то время графика была не та , не видно ее в 3д , а мультфильм прекрасный !
 
евгения мурашко Профиль 20-Сен-2013 15:02

в то время графика была не та
Это рисованный мульт.
 

евгения мурашко, вы знаток мультипликации )))))))))))))))))))))))))))))))))))))))))) LOL графика блин ))))))))))))))))))
 

Snooker, А Вы никогда не ошибались?
Пусть тот кто безгрешен, пусть первый бросит в меня камень.
 

Dag13, это не ошибка - это отличная шутка :)
 

А мистер Snooker видимо не знаток ! Я высказала свое субъективное мнение , Dag13 меня поправил , а подкалывать не надо !
 
евгения мурашко Профиль 22-Сен-2013 13:26

Замечательный мультфильм!Спасибо за раздачу!
 

Один из любимых мультиков детства! Спасибо!
 

Посмотрели всей семьей с большим удовольствием! Большое спасибо!
 

Мульт нормальный - спасибо
 

Очень хорошее впечатление! Дома все довольны после просмотра.
 

для детей большой подарок ,уже отвыкли от рисованных мультфильмов
 

Блеск! Жена в восторге, а не хотела покупать телевизор 3D. СПАСИБО!
 

тут 3D почти нету!!
 

Все с 3-Д тут в порядке.Это качественный студийный конверт, для рисованного мультфильма очень даже хорошо. Релиз был в прошлом году.