Торренты   
 
 


Русалочка 3D / The Little Mermaid 3D (Рон Клементс, Джон М / Ron Clements, John M) [1989, Мультфильм, Мюзикл, Фэнтези, Мелодрама, Семейный, BDrip, 1080p]Full OverUnder / Вертикальная стереопара

Рейтинг 3D:
28 голосов
6.1
Рейтинг фильма:
27 голосов
7.7
 
Вы должны быть авторизированы,
чтобы ставить оценки


Русалочка / The Little Mermaid
Год выпуска: 1989 (2013)
Страна: США
Студия: Walt Disney Pictures
Жанр: Мультфильм, Мюзикл, Фэнтези, Мелодрама, Семейный
Продолжительность: 01:22:51
Перевод: Профессиональный (дублированный)
Русские субтитры: нет
Режиссер на русском: Рон Клементс, Джон Маскер
Режиссер на английском: Ron Clements, John Musker
В ролях: Джоди Бенсон, Пэт Кэрролл, Рене Обержонуа, Кристофер Дэниэл Барнс, Пэдди Эдвардс, Бадди Хэкетт, Джейсон Марин, Кеннет Марс, Эди МакКлёрг, Уилл Райан
Описание: Таинственные глубины моря хранят немало тайн, а обитатели океана могут рассказать множество удивительных историй. И самой невероятной из них была и остаётся история русалочки Ариэль. Дочь могущественного царя подводного мира Тритона, она однажды влюбляется в прекрасного и мужественного принца. Но разве они могут быть вместе — земной человек и морская дева? Однако настоящие чувства преодолевают любые преграды. Ради своей любви Ариэль готова пойти на всё. Даже если для обретения своего счастья ей навсегда придётся покинуть родной океан и навеки стать земной девушкой…
Сэмпл: http://www.sendspace.com/file/04rrda
Качество: BDrip
Контейнер: MKV
Формат 3D: OverUnder / Вертикальная стереопара
Порядок ракурсов: левый ракурс первый
Видео кодек: x264
Аудио кодек: AC3
Видео: AVC / High@L5.0 / 23,976 fps / 1920х2160 / 29,1 Мбит/сек
Аудио: Русский / AC3 / 48 KHz / 5.1 ch / 640 Кбит/сек
Аудио 2: Английский / AC3 / 48 KHz / 5.1 ch / 640 Кбит/сек
Релиз группы: ВНИМАНИЕ ! На встроенных ТВ-плеерах работать не будет!!!
Железные плееры на которых воспроизводятся полные стереопары:Popcorn C-200 , Dune HD Smart D1 , Dune HD DUO , Dune HD Smart H1 , Dune HD Smart B1 , Dune HD Max , Dune HD TV-303D , Dune HD Base 3D

MediaInfo

Общее
Уникальный идентификатор : 228066163753856207736353897289577869705 (0xAB93F20639F5E541A6771FE97B233189)
Полное имя : E:\закачки\The Little Mermaid.Rip by SeRoGa00.mkv
Формат : Matroska
Версия формата : Version 2
Размер файла : 17,9 Гбайт
Продолжительность : 1 ч. 22 м.
Общий поток : 31,0 Мбит/сек
Дата кодирования : UTC 2013-09-20 06:18:04
Программа кодирования : mkvmerge v3.4.0 ('Rapunzel') сборка от May 15 2010 09:38:20
Библиотека кодирования : libebml v0.8.0 + libmatroska v0.9.0
Видео
Идентификатор : 1
Формат : AVC
Формат/Информация : Advanced Video Codec
Профиль формата : High@L5.0
Параметр CABAC формата : Да
Параметр ReFrames формата : 4 кадра
Идентификатор кодека : V_MPEG4/ISO/AVC
Продолжительность : 1 ч. 22 м.
Битрейт : 29,1 Мбит/сек
Ширина : 1920 пикселей
Высота : 2160 пикселей
Соотношение сторон : 0,889
Частота кадров : 23,976 кадра/сек
Цветовое пространство : YUV
Субдискретизация насыщенности : 4:2:0
Битовая глубина : 8 бит
Тип развёртки : Прогрессивная
Бит/(Пиксели*Кадры) : 0.292
Размер потока : 16,8 Гбайт (94%)
Заголовок : Rip by SeRoGa00
Библиотека кодирования : x264 core 128 r2216kMod 198a7ea
Настройки программы : cabac=1 / ref=4 / deblock=1:-3:-3 / analyse=0x3:0x113 / me=umh / subme=9 / psy=1 / fade_compensate=0.00 / psy_rd=1.00:0.15 / mixed_ref=1 / me_range=16 / chroma_me=1 / trellis=2 / 8x8dct=1 / cqm=0 / deadzone=21,11 / fast_pskip=1 / chroma_qp_offset=-3 / threads=9 / lookahead_threads=1 / sliced_threads=0 / nr=0 / decimate=1 / interlaced=0 / bluray_compat=0 / constrained_intra=0 / bframes=6 / b_pyramid=2 / b_adapt=2 / b_bias=0 / direct=3 / weightb=1 / open_gop=0 / weightp=2 / keyint=250 / keyint_min=23 / scenecut=40 / intra_refresh=0 / rc_lookahead=60 / rc=crf / mbtree=1 / crf=18.0000 / qcomp=0.60 / qpmin=10 / qpmax=69 / qpstep=4 / vbv_maxrate=40000 / vbv_bufsize=40000 / crf_max=0.0 / nal_hrd=none / ip_ratio=1.40 / aq=1:1.00
Язык : English
Аудио #1
Идентификатор : 2
Формат : AC-3
Формат/Информация : Audio Coding 3
Расширение режима : CM (complete main)
Идентификатор кодека : A_AC3
Продолжительность : 1 ч. 22 м.
Вид битрейта : Постоянный
Битрейт : 640 Кбит/сек
Каналы : 6 каналов
Расположение каналов : Front: L C R, Side: L R, LFE
Частота : 48,0 КГц
Битовая глубина : 16 бит
Метод сжатия : С потерями
Размер потока : 379 Мбайт (2%)
Язык : Russian
Аудио #2
Идентификатор : 3
Формат : AC-3
Формат/Информация : Audio Coding 3
Расширение режима : CM (complete main)
Идентификатор кодека : A_AC3
Продолжительность : 1 ч. 22 м.
Вид битрейта : Постоянный
Битрейт : 640 Кбит/сек
Каналы : 6 каналов
Расположение каналов : Front: L C R, Side: L R, LFE
Частота : 48,0 КГц
Битовая глубина : 16 бит
Метод сжатия : С потерями
Размер потока : 379 Мбайт (2%)
Язык : English

Скриншоты


Остальные раздачи этого фильма (2)
Благодарности релизеру (4)

Торрент:

Статус:

Размер:

Зарегистрирован   [ 2013-09-20 11:36 ]

проверено

17.91 GB

 
 Мнение о фильме (17)





Спасибо за релиз, один из любимых мультов , с удовольствием посмотрю в 3д)))
 

Большое спасибо!Доча в восторге
 
Вячеслав Старчевский Профиль 19-Сен-2013 16:23

в то время графика была не та , не видно ее в 3д , а мультфильм прекрасный !
 
евгения мурашко Профиль 20-Сен-2013 15:02

в то время графика была не та
Это рисованный мульт.
 

евгения мурашко, вы знаток мультипликации )))))))))))))))))))))))))))))))))))))))))) LOL графика блин ))))))))))))))))))
 

Snooker, А Вы никогда не ошибались?
Пусть тот кто безгрешен, пусть первый бросит в меня камень.
 

Dag13, это не ошибка - это отличная шутка :)
 

А мистер Snooker видимо не знаток ! Я высказала свое субъективное мнение , Dag13 меня поправил , а подкалывать не надо !
 
евгения мурашко Профиль 22-Сен-2013 13:26

Замечательный мультфильм!Спасибо за раздачу!
 

Один из любимых мультиков детства! Спасибо!
 

Посмотрели всей семьей с большим удовольствием! Большое спасибо!
 

Мульт нормальный - спасибо
 

Очень хорошее впечатление! Дома все довольны после просмотра.
 

для детей большой подарок ,уже отвыкли от рисованных мультфильмов
 

Блеск! Жена в восторге, а не хотела покупать телевизор 3D. СПАСИБО!
 

тут 3D почти нету!!
 

Все с 3-Д тут в порядке.Это качественный студийный конверт, для рисованного мультфильма очень даже хорошо. Релиз был в прошлом году.