Торренты   
 
 

 

Полет бабочки в 3Д / Flight of the Monarch Butterfly 3D (Тимо Майер / Тimо Jоh. Мауеr) [2012, Документальный, BDrip, 1080p]Full OverUnder / Вертикальная стереопара

Рейтинг 3D:
51 голосов
7.5
Рейтинг фильма:
45 голосов
7.8
 
Вы должны быть авторизированы,
чтобы ставить оценки


Полет бабочки / Flight of the Monarch Butterfly
Год выпуска: 2012
Страна: Германия
Студия: Los Banditos Films
Жанр: Документальный
Продолжительность: 00:39:43
Перевод: Студийный (одноголосый закадровый)
Русские субтитры: нет
Режиссер на русском: Тимо Майер
Режиссер на английском: Тimо Jоh. Мауеr
В ролях: Бабочки
Описание: Бабочка Монарх — одно самых прекрасных и таинственных насекомых на нашей планете. Жизнь этих грациозных и изящных существ поистине удивительна. Ежегодно миллионы особей отправляются в далекое путешествие, переживая серию ярких и необычных приключений. Теперь можно присоединиться к этому впечатляющему полету и понаблюдать за одним из самых красочных зрелищ на Земле в трехмерном формате.
Сэмпл: http://www.sendspace.com/file/sohff7
Качество: BDrip
Контейнер: MKV
Формат 3D: OverUnder / Вертикальная стереопара
Порядок ракурсов: левый ракурс первый
Видео кодек: x264
Аудио кодек: AC3
Видео: AVC / High@L5.0 / 23,976 fps / 1920х2160 / 28,7 Мбит/сек
Аудио: Русский / AC3 / 48 KHz / 5.1 ch / 640 Кбит/сек
Аудио 2: Английский / AC3 / 48 KHz / 5.1 ch / 640 Кбит/сек
Релиз группы: ВНИМАНИЕ ! На встроенных ТВ-плеерах работать не будет!!!
Железные плееры на которых воспроизводятся полные стереопары:Popcorn C-200 , Dune HD Smart D1 , Dune HD DUO , Dune HD Smart H1 , Dune HD Smart B1 , Dune HD Max , Dune HD TV-303D , Dune HD Base 3D

MediaInfo

Общее
Уникальный идентификатор : 225576498864663938108483216159759157612 (0xA9B4741174981173B2B883914B9C496C)
Полное имя : E:\закачки\Flight оf thе Моnаrсh Вuttеrflу.Rip by SeRoGa00.mkv
Формат : Matroska
Версия формата : Version 2
Размер файла : 8,50 Гбайт
Продолжительность : 39 м.
Общий поток : 30,6 Мбит/сек
Дата кодирования : UTC 2013-09-12 11:39:42
Программа кодирования : mkvmerge v3.4.0 ('Rapunzel') сборка от May 15 2010 09:38:20
Библиотека кодирования : libebml v0.8.0 + libmatroska v0.9.0
Видео
Идентификатор : 1
Формат : AVC
Формат/Информация : Advanced Video Codec
Профиль формата : High@L5.0
Параметр CABAC формата : Да
Параметр ReFrames формата : 4 кадра
Идентификатор кодека : V_MPEG4/ISO/AVC
Продолжительность : 39 м.
Битрейт : 28,7 Мбит/сек
Ширина : 1920 пикселей
Высота : 2160 пикселей
Соотношение сторон : 0,889
Частота кадров : 23,976 кадра/сек
Цветовое пространство : YUV
Субдискретизация насыщенности : 4:2:0
Битовая глубина : 8 бит
Тип развёртки : Прогрессивная
Бит/(Пиксели*Кадры) : 0.289
Размер потока : 7,97 Гбайт (94%)
Заголовок : Rip by SeRoGa00
Библиотека кодирования : x264 core 128 r2216kMod 198a7ea
Настройки программы : cabac=1 / ref=4 / deblock=1:-3:-3 / analyse=0x3:0x113 / me=umh / subme=9 / psy=1 / fade_compensate=0.00 / psy_rd=1.00:0.15 / mixed_ref=1 / me_range=16 / chroma_me=1 / trellis=2 / 8x8dct=1 / cqm=0 / deadzone=21,11 / fast_pskip=1 / chroma_qp_offset=-3 / threads=9 / lookahead_threads=1 / sliced_threads=0 / nr=0 / decimate=1 / interlaced=0 / bluray_compat=0 / constrained_intra=0 / bframes=6 / b_pyramid=2 / b_adapt=2 / b_bias=0 / direct=3 / weightb=1 / open_gop=0 / weightp=2 / keyint=250 / keyint_min=23 / scenecut=40 / intra_refresh=0 / rc_lookahead=60 / rc=crf / mbtree=1 / crf=18.0000 / qcomp=0.60 / qpmin=10 / qpmax=69 / qpstep=4 / vbv_maxrate=40000 / vbv_bufsize=40000 / crf_max=0.0 / nal_hrd=none / ip_ratio=1.40 / aq=1:1.00
Язык : English
Аудио #1
Идентификатор : 2
Формат : AC-3
Формат/Информация : Audio Coding 3
Расширение режима : CM (complete main)
Идентификатор кодека : A_AC3
Продолжительность : 39 м.
Вид битрейта : Постоянный
Битрейт : 640 Кбит/сек
Каналы : 6 каналов
Расположение каналов : Front: L C R, Side: L R, LFE
Частота : 48,0 КГц
Битовая глубина : 16 бит
Метод сжатия : С потерями
Размер потока : 182 Мбайт (2%)
Язык : Russian
Аудио #2
Идентификатор : 3
Формат : AC-3
Формат/Информация : Audio Coding 3
Расширение режима : CM (complete main)
Идентификатор кодека : A_AC3
Продолжительность : 39 м.
Вид битрейта : Постоянный
Битрейт : 640 Кбит/сек
Каналы : 6 каналов
Расположение каналов : Front: L C R, Side: L R, LFE
Частота : 48,0 КГц
Битовая глубина : 16 бит
Метод сжатия : С потерями
Размер потока : 182 Мбайт (2%)
Язык : English

Скриншоты


Остальные раздачи этого фильма (2)
Благодарности релизеру (7)

Торрент:

Статус:

Размер:

Зарегистрирован   [ 2013-09-25 11:58 ]

проверено

8.5 GB

 
 Мнение о фильме (21)

1, 2  След.






Красиво! 3D - бомба! Ещё бы про попугайчиков ... Автору спасибо за труды !
 

3D с вылетами, но глаза в кучу, пришлось отодвигатся подальше.
Релизеру естественно громадное спасибо!!!
 

помогите скачать, пожалуйста
 

Спасибо за красоту которую вы дарите людям.
Великая Вам благодарность.
 
Анатолий921 Профиль 18-Мар-2013 20:56

Именно эту красоту мечтала увидеть Рози Ларсен из сериала "Убийство" ..
PS. Простите что не в тему)
И, Спасибо за красивый фильм!
 

Спасибо,очень хороший фильм,а также и всему сайту просто класс....
 

Релизеру огромное спасибо!Очень хороший фильм.
 

super puper
 

Изображение и 3D отличные, однако, видеть и слышать рассказчиков, не понимая их, не интересно. Спасибо за раздачу.
 

Изобрание и 3 d великолепные, жаль только, чтонет перевода. Для познавательных целей было бы хорошо.
 

Спасибо.Раньше скачивал этот релиз,без русской дороги,очень понравилось.Теперь беру без сомнения.24.08.13г.
 

Спасибо,с нашей дорожкой посмотрю еще разок !
 

Перевод украсил весь фильм. Интересно было узнать такое. Вдобавок к красивой картинке и хорошему 3D. Спасибо!
 

3D глубокое, но комфорта нет, глаза напрягаются, а в некоторых сценах их просто выворачивает. Музыка давит на мозг.
 

спасибо большое
 

глаза действительно в кучу-честно не досмотрел-тяжело смотреть
 

Спасибо! Порадовали!COOL!:)
 

Здорово!
 

Все неплохо, но бабочек можно было-бы сделать вне экрана. А так понравилось.
 

Отпад
 

Страница 1 из 2

1, 2  След.