Торренты   
 
 

 

Уличные танцы 3: Все звезды / All Stars (Бен Грегор) [2013 г., Anamorph OverUnder]

Рейтинг 3D:
2 голосов
7.0
Рейтинг фильма:
6 голосов
1.9
 
Вы должны быть авторизированы,
чтобы ставить оценки


Уличные танцы 3: Все звезды / All Stars
Год выпуска: 2013
Страна: Великобритания
Жанр: комедия, семейный
Продолжительность: 106 мин. / 01:46
Перевод: Профессиональный (полное дублирование)
Режиссер: Бен Грегор
В ролях: Тео Стивенсон
Акай Осей-Мэнсфилд
Флер Хаудейк
Доминик Герман-Дэй
Амелия Кларксон
Гамал Тосифа
Эшли Дженсен
Хью Дэннис
Кевин Бишоп
Эшли Уолтерс
Описание: Герой фильма, энергичный и бойкий Этан, объединяется со скромным профессиональным стритдансером Джейденом для участия в очередном чемпионате по уличным танцам. Только своей победой ребята смогут спасти свой молодежный клуб от закрытия. И они сделают это, во что бы то ни стало…
Формат 3D: Anamorph OverUnder
Видео: Video: MKV MPEG4 Video (H264) 1920x1080 29.97fps
MeiaInfo:
General
Complete name : D:\Фильмы\2013\Качалка\STREETDANCE_3_ALL_STAR_3D.Title3.mkv
Format : Matroska
File size : 4.76 GiB
Duration : 1h 42mn
Overall bit rate : 6 633 Kbps
Movie name : STREETDANCE_3_ALL_STAR_3D.Title3.BlurayRip
Video
ID : 1
Format : AVC
Format/Info : Advanced Video Codec
Format profile : Main@L4.0
Format settings, CABAC : No
Format settings, ReFrames : 2 frames
Format settings, GOP : M=3, N=12
Codec ID : V_MPEG4/ISO/AVC
Duration : 1h 42mn
Bit rate : 6 245 Kbps
Nominal bit rate : 8 000 Kbps
Width : 1 920 pixels
Height : 1 080 pixels
Display aspect ratio : 16:9
Frame rate : 29.970 fps
Color space : YUV
Chroma subsampling : 4:2:0
Bit depth : 8 bits
Scan type : Progressive
Bits/(Pixel*Frame) : 0.100
Stream size : 4.48 GiB (94%)
Writing library : x264 core 77
Encoding settings : cabac=0 / ref=1 / deblock=1:0:0 / analyse=0x1:0x11 / me=hex / subme=5 / psy=1 / psy_rd=0.0:0.0 / mixed_ref=0 / me_range=16 / chroma_me=1 / trellis=0 / 8x8dct=0 / cqm=0 / deadzone=21,11 / chroma_qp_offset=0 / threads=1 / nr=0 / decimate=1 / mbaff=0 / constrained_intra=0 / bframes=2 / b_pyramid=0 / b_adapt=1 / b_bias=0 / direct=1 / wpredb=0 / keyint=12 / keyint_min=7 / scenecut=40 / rc_lookahead=12 / rc=abr / mbtree=1 / bitrate=8000 / ratetol=1.0 / qcomp=0.60 / qpmin=10 / qpmax=51 / qpstep=4 / ip_ratio=1.41 / aq=1:1.00
Language : English
Audio
ID : 2
Format : MPEG Audio
Format version : Version 1
Format profile : Layer 3
Mode : Joint stereo
Mode extension : MS Stereo
Codec ID : A_MPEG/L3
Codec ID/Hint : MP3
Duration : 1h 42mn
Bit rate mode : Constant
Bit rate : 256 Kbps
Channel(s) : 2 channels
Sampling rate : 48.0 KHz
Compression mode : Lossy
Delay relative to video : 1mn 5s
Stream size : 188 MiB (4%)
Writing library : LAME3.98.2
Language : English / Russian
Благодарности релизеру (6)

Торрент:

Статус:

Размер:

Зарегистрирован   [ 2013-09-26 07:08 ]

поглощено

4.76 GB

 
Комментарии:





Медиа инфо кодирования мягко говоря [не то ] Вуложите пожалуйста исходник .
 

Топик был перенесен из форума 3D Фильмы в форум Архив

Dag13