Торренты   
 
 


Уличные танцы 3: Все звезды / All Stars (Бен Грегор) [2013 г., BDrip, Anamorph OverUnder]

Рейтинг 3D:
10 голосов
6.5
Рейтинг фильма:
11 голосов
3.0
 
Вы должны быть авторизированы,
чтобы ставить оценки


Уличные танцы 3: Все звезды / All Stars Год выпуска: 2013
Страна: Великобритания (Vertigo Films, Square One)
Жанр: Музыкальный, Комедия, Семейный
Продолжительность: 01:42:49
Перевод: Профессиональный (полное дублирование)
Режиссер: Бен Грегор
В ролях: Тео Стивенсон, Акай Осей-Мэнсфилд. Флер Хаудейк, Доминик Герман-Дэй, Амелия Кларксон, Гамал Тосифа, Эшли Дженсен, Хью Дэннис, Кевин Бишоп, Эшли Уолтерс
Описание: Герой фильма, энергичный и бойкий Этан, объединяется со скромным профессиональным стритдансером Джейденом для участия в очередном чемпионате по уличным танцам. Только своей победой ребята смогут спасти свой молодежный клуб от закрытия. И они сделают это, во что бы то ни стало…
Качество: BDrip
Контейнер: MKV
Формат 3D: Anamorph OverUnder / Вертикальная анаморфная стереопара
Видео кодек: x264
Аудио кодек: AC-3
Видео: AVC, High@L4.1, 1920х1080, 23,976 кадра/сек, 12,7 Мбит/сек
Аудио:
#1 - Русский / AC3 / 48 KHz / 5.1 ch / 640 Кбит/сек (дубляж Blu-ray 3D)
#2 - Английский / AC3 / 48 KHz / 5.1 ch / 640 Кбит/сек (Original)
Субтитры: отсутствуют

Скриншоты

Media Info

Код:
Общее
Уникальный идентификатор                 : 219765927211195069354344575520033345926 (0xA55560C46CC86E32B9281663324A1186)
Полное имя                               : H:\Source\AllStars.3D.2013.BD3DRip.Half.OU.x264.AC3.3D-RuGroup.mkv
Формат                                   : Matroska
Версия формата                           : Version 4 / Version 2
Размер файла                             : 10,3 Гбайт
Продолжительность                        : 1 ч. 42 м.
Общий поток                              : 14,3 Мбит/сек
Название фильма                          : All Stars 3D (2013) release 3D-RuGroup
Дата кодирования                         : UTC 2013-09-27 13:48:29
Программа кодирования                    : mkvmerge v6.3.0 ('You can't stop me!') built on Jul 19 2013 16:27:38
Библиотека кодирования                   : libebml v1.3.0 + libmatroska v1.4.1
Видео
Идентификатор                            : 1
Формат                                   : AVC
Формат/Информация                        : Advanced Video Codec
Профиль формата                          : High@L4.1
Параметр CABAC формата                   : Да
Параметр ReFrames формата                : 4 кадра
Идентификатор кодека                     : V_MPEG4/ISO/AVC
Продолжительность                        : 1 ч. 42 м.
Битрейт                                  : 12,7 Мбит/сек
Ширина                                   : 1920 пикселей
Высота                                   : 1080 пикселей
Соотношение сторон                       : 16:9
Режим частоты кадров                     : Постоянный
Частота кадров                           : 23,976 кадра/сек
Цветовое пространство                    : YUV
Субдискретизация насыщенности            : 4:2:0
Битовая глубина                          : 8 бит
Тип развёртки                            : Прогрессивная
Бит/(Пиксели*Кадры)                      : 0.256
Размер потока                            : 9,13 Гбайт (89%)
Заголовок                                : rip by itsamna
Библиотека кодирования                   : x264 core 130 r2273 b3065e6
Настройки программы                      : cabac=1 / ref=4 / deblock=1:-3:-3 / analyse=0x3:0x133 / me=umh / subme=10 / psy=1 / psy_rd=1.05:0.15 / mixed_ref=1 / me_range=32 / chroma_me=1 / trellis=2 / 8x8dct=1 / cqm=0 / deadzone=21,11 / fast_pskip=0 / chroma_qp_offset=-3 / threads=12 / lookahead_threads=2 / sliced_threads=0 / nr=0 / decimate=1 / interlaced=0 / bluray_compat=0 / constrained_intra=0 / bframes=8 / b_pyramid=2 / b_adapt=2 / b_bias=0 / direct=3 / weightb=1 / open_gop=0 / weightp=2 / keyint=250 / keyint_min=23 / scenecut=40 / intra_refresh=0 / rc_lookahead=60 / rc=crf / mbtree=1 / crf=18.0 / qcomp=0.60 / qpmin=0 / qpmax=69 / qpstep=4 / vbv_maxrate=50000 / vbv_bufsize=62500 / crf_max=0.0 / nal_hrd=none / ip_ratio=1.40 / aq=1:0.90
Default                                  : Да
Forced                                   : Нет
Аудио #1
Идентификатор                            : 2
Формат                                   : AC-3
Формат/Информация                        : Audio Coding 3
Расширение режима                        : CM (complete main)
Параметр Endianness формата              : Big
Идентификатор кодека                     : A_AC3
Продолжительность                        : 1 ч. 42 м.
Вид битрейта                             : Постоянный
Битрейт                                  : 640 Кбит/сек
Каналы                                   : 6 каналов
Расположение каналов                     : Front: L C R, Side: L R, LFE
Частота                                  : 48,0 КГц
Битовая глубина                          : 16 бит
Метод сжатия                             : С потерями
Размер потока                            : 471 Мбайт (4%)
Заголовок                                : Дубляж - BD 3D Rus
Язык                                     : Russian
Default                                  : Да
Forced                                   : Нет
Аудио #2
Идентификатор                            : 3
Формат                                   : AC-3
Формат/Информация                        : Audio Coding 3
Расширение режима                        : CM (complete main)
Параметр Endianness формата              : Big
Идентификатор кодека                     : A_AC3
Продолжительность                        : 1 ч. 42 м.
Вид битрейта                             : Постоянный
Битрейт                                  : 640 Кбит/сек
Каналы                                   : 6 каналов
Расположение каналов                     : Front: L C R, Side: L R, LFE
Частота                                  : 48,0 КГц
Битовая глубина                          : 16 бит
Метод сжатия                             : С потерями
Размер потока                            : 471 Мбайт (4%)
Заголовок                                : Original
Язык                                     : English
Default                                  : Нет
Forced                                   : Нет
--Релиз группы:

Проверено на встроенном плейере ТВ LG 42LW4500
--
Благодарности релизеру (7)

Торрент:

Статус:

Размер:

Зарегистрирован   [ 2013-09-27 18:20 ]

проверено

10.26 GB

 
 Мнение о фильме (3)





кто смотрел отписываеммся интересно.стоит качать
 

Фильм для молодежи, для любителей танцев и музыки. У всех вкусы разные, мне понравилось. 3D нормальное, вылетов нет.
 

весёлый фильмец рекомендую