Торренты   
 
 

 

Моцарт: Квинтет для кларнета в 3D [2010, BDrip, 720p, Anamorph OverUnder]

Рейтинг 3D:
5 голосов
8.5
Рейтинг фильма:
5 голосов
8.5
 
Вы должны быть авторизированы,
чтобы ставить оценки


Моцарт: Квинтет для кларнета в 3D [2010, BDrip, 720p, Anamorph OverUnder]
Год выпуска: 2010
Страна: США, Филадельфия
Жанр: Классическая музыка
Продолжительность: 01:03:00
Описание: Один из 3D-альбомов музыки ™, который был снят в в июне 2010 года. Победители конкурса - струнный квартет Старый Город. Эта молодая группа состоит из недавних выпускников престижных Институтов музыки Кертиса в Филадельфии. Их молодость и энергия удивительны. Это один из первых классических проектов для Blu-ray 3D.К квартету присоединились два парня, кларнетист Ruokai Чен и труба Кори Клейна.
Музыка Моцарта является знаком большинству любителей музыки, и, хотя очень доступна для всех, полна убедительных гармонической и композиционной сложности.
Этот диск был снят с использованием 3D-камер и совместимых Blu-ray 3D ™, но полностью совместим с 2D-телевизороми и аудио оборудованием.
Формат 3D: Anamorph OverUnder
Видео:
Качество: BDrip
Контейнер: MKV
Формат 3D: Half OverUnder / Вертикальная анаморфная стереопара
Видео кодек: x264
Аудио кодек: AC3
Видео: AVC / 1280х720p / 59.94 fps / 8,126 Мbps Аудио: Музыка / AC3 / 48 KHz / 5.1 ch / 448 Kbps (оригинал)

Скриншоты




Media Info

General
Complete name : D:\Mozart _Clarinet_Quintet.mkv
Format : Matroska
File size : 3.87 GiB
Duration : 1h 3mn
Overall bit rate : 8 748 Kbps
Movie name : Mozart Clarinet Quintet K. 5.edis.3d-tracker.ru.Bluray3DRip
Encoded date : UTC 2012-07-28 18:16:12
Writing application : mkvmerge v4.2.0 ('3d-tracker') сборка от Jul 28 2010 18:38:23
Writing library : libebml v1.0.0 + libmatroska v1.0.0
Video
ID : 1
Format : AVC
Format/Info : Advanced Video Codec
Format profile : High@L4.1
Format settings, CABAC : Yes
Format settings, ReFrames : 2 frames
Muxing mode : Container profile=Unknown@4.1
Codec ID : V_MPEG4/ISO/AVC
Duration : 1h 3mn
Bit rate : 8 126 Kbps
Width : 1 280 pixels
Height : 720 pixels
Display aspect ratio : 16:9
Frame rate : 59.940 fps
Resolution : 24 bits
Colorimetry : 4:2:0
Scan type : Progressive
Bits/(Pixel*Frame) : 0.147
Stream size : 3.59 GiB (93%)
Title : edis.3d-tracker.ru
Writing library : x264 core
Audio
ID : 2
Format : AC-3
Format/Info : Audio Coding 3
Codec ID : A_AC3
Duration : 1h 3mn
Bit rate mode : Constant
Bit rate : 448 Kbps
Channel(s) : 6 channels
Channel positions : Front: L C R, Surround: L R, LFE
Sampling rate : 48.0 KHz
Stream size : 203 MiB (5%)
Title : edis.3d-tracker.ru
Menu
00:00:00.000 : en:(01)00:00:00:000
Благодарности релизеру (9)

Торрент:

Статус:

Размер:

Зарегистрирован   [ 2013-09-29 12:22 ]

проверено

3.87 GB

 
 Мнение о фильме (4)





Спасибо ,очень понравилось. Отличная музыка, отличное 3Д видео.
 

Присоединяюсь.
 

Отличная картинка, великолепное 3D, а музыка - это же МОЦАРТ!!!
 

Смотреть особо нечего, как и на реальном концерте.
А вот слушать!!!!
Качество звука на высоте.