Торренты   
 
 


Волшебник страны Оз / The Wizard of Oz (Виктор Флеминг, Джордж Кьюкор, Мервин ЛеРой, Норман Торог, Кинг Видор) [1939 г., BDRip, Full OverUnder]

Рейтинг 3D:
Пока никто не голосовал
Рейтинг фильма:
Пока никто не голосовал
 
Вы должны быть авторизированы,
чтобы ставить оценки


Волшебник страны Оз / The Wizard of Oz
Год выпуска: 1939
Страна: США
Жанр: Фэнтези, Приключения, Мюзикл, Семейный
Продолжительность: 01:41:45
Перевод: Профессиональный (полное дублирование)
Режиссер: Виктор Флеминг, Джордж Кьюкор, Мервин ЛеРой, Норман Торог, Кинг Видор
В ролях: Джуди Гарлэнд, Фрэнк Морган, Рэй Болджер, Берт Лар, Джек Хейли, Билли Бурк, Маргарет Хэмилтон, Чарли Грейпвин, Пэт Уолш, Клара Блэндик
Описание: Девочку Дороти и собачку Тото смерч уносит вместе с домиком в сказочную страну Оз. Там она становится обладательницей волшебных туфель, которые хочет заполучить злая ведьма. Дороти, собачка Тото и её новые друзья — Страшила Мудрый, Железный Дровосек, Трусливый Лев идут по дороге из жёлтого кирпича в Изумрудный город, чтобы просить всемогущего волшебника помочь ей вернуться домой, а друзьям — выполнить их заветные желания...
Релиз группы:
Формат 3D: OverUnder BDRip, Full
Видео: AVC, High@L4.0, 1920х2160, 23,976 кадра/сек, 28.1 Mbps
Аудио: Rus, AC3, 6 каналов, 640 Кбит/сек, 48,0 КГц
Аудио: Eng, AC3, 6 каналов, 640 Кбит/сек, 48,0 КГц

Скриншоты




Media Info

General
Unique ID : 244296931795936816488243671056178988691 (0xB7C9E0AC25EC3D38A2157A656E37C693)
Complete name : E:\STEREO\The Wizard Of Oz_1080p_Rip by Dag13.mkv
Format : Matroska
Format version : Version 2
File size : 21.3 GiB
Duration : 1h 41mn
Overall bit rate : 29.9 Mbps
Encoded date : UTC 2013-09-29 08:40:09
Writing application : mkvmerge v3.4.0 ('Rapunzel') сборка от May 15 2010 09:38:20
Writing library : libebml v0.8.0 + libmatroska v0.9.0
Video
ID : 1
Format : AVC
Format/Info : Advanced Video Codec
Format profile : High@L5.0
Format settings, CABAC : Yes
Format settings, ReFrames : 4 frames
Codec ID : V_MPEG4/ISO/AVC
Duration : 1h 41mn
Bit rate : 28.1 Mbps
Width : 1 920 pixels
Height : 2 160 pixels
Display aspect ratio : 0.889
Frame rate : 23.976 fps
Color space : YUV
Chroma subsampling : 4:2:0
Bit depth : 8 bits
Scan type : Progressive
Bits/(Pixel*Frame) : 0.282
Stream size : 19.9 GiB (94%)
Title : Rip by Dag13
Writing library : x264 core 116 r2074 2641b9e
Encoding settings : cabac=1 / ref=4 / deblock=1:-3:-3 / analyse=0x3:0x113 / me=umh / subme=9 / psy=1 / psy_rd=1.00:0.00 / mixed_ref=1 / me_range=16 / chroma_me=1 / trellis=2 / 8x8dct=1 / cqm=0 / deadzone=21,11 / fast_pskip=1 / chroma_qp_offset=-2 / threads=9 / sliced_threads=0 / nr=0 / decimate=1 / interlaced=0 / bluray_compat=0 / constrained_intra=0 / bframes=6 / b_pyramid=2 / b_adapt=2 / b_bias=0 / direct=3 / weightb=1 / open_gop=0 / weightp=2 / keyint=250 / keyint_min=23 / scenecut=40 / intra_refresh=0 / rc_lookahead=60 / rc=crf / mbtree=1 / crf=19.0 / qcomp=0.60 / qpmin=1 / qpmax=69 / qpstep=4 / ip_ratio=1.40 / aq=1:1.00
Language : English
Default : No
Forced : No
Audio #1
ID : 2
Format : AC-3
Format/Info : Audio Coding 3
Mode extension : CM (complete main)
Codec ID : A_AC3
Duration : 1h 41mn
Bit rate mode : Constant
Bit rate : 640 Kbps
Channel(s) : 6 channels
Channel positions : Front: L C R, Side: L R, LFE
Sampling rate : 48.0 KHz
Bit depth : 16 bits
Compression mode : Lossy
Stream size : 466 MiB (2%)
Language : Russian
Default : Yes
Forced : No
Audio #2
ID : 3
Format : AC-3
Format/Info : Audio Coding 3
Mode extension : CM (complete main)
Codec ID : A_AC3
Duration : 1h 41mn
Bit rate mode : Constant
Bit rate : 640 Kbps
Channel(s) : 6 channels
Channel positions : Front: L C R, Side: L R, LFE
Sampling rate : 48.0 KHz
Bit depth : 16 bits
Compression mode : Lossy
Stream size : 466 MiB (2%)
Language : English
Default : No
Forced : No
На встроенных ТВ-плейерах показывать НЕ будет!!!
Благодарности релизеру (1)

Торрент:

Статус:

Размер:

Зарегистрирован   [ 2013-09-29 13:05 ]

проверено

21.27 GB