Торренты   
 
 

 

Музей восковых фигур / House of Wax (Андре Де Тот) [1953 г., BDRip, Full OverUnder]

Рейтинг 3D:
50 голосов
8.4
Рейтинг фильма:
48 голосов
8.0
 
Вы должны быть авторизированы,
чтобы ставить оценки


Музей восковых фигур / House of Wax
Год выпуска: 1953
Страна: США
Жанр: Ужасы, Триллер
Продолжительность: 01:28:21
Перевод: Профессиональный (многоголосый, закадровый)
Режиссер: Андре Де Тот
В ролях: Винсент Прайс, Фрэнк Лавджой, Филлис Кирк, Кэролин Джонс, Пол Пицерни, Рой Робертс, Анджела Кларк, Пол Кэвэна, Даббс Грир, Чарльз Бронсон
Описание: Доктор Генри Джарэд был гением. Он создал великолепный музей восковых фигур, наполнив его историческими персонажами от Марка Антония и Клеопатры до Линкольна и его убийцы. Но, к сожалению, музей не пользовался популярностью и его компаньон, решил все сжечь, чтобы получить страховку. Пытаясь спасти свое детище, доктор исчезает в огне.
Спустя несколько лет открывается новый музей больше похожий на «Комнату ужасов», наполненный сценами убийств, насилия и пыток. Его персонажи так похожи на живых людей! В чем причина этого невероятного сходства? Почему рядом с музеем исчезают люди?
Релиз группы:
Формат 3D: OverUnder BDRip, Full
Видео: AVC, High@L4.0, 1920х2160, 23,976 кадра/сек, 26.6 Mbps
Аудио: Rus, AC3, 2 канала, 192 Кбит/сек, 48,0 КГц
Аудио: Eng, AC3, 2 канала, 448 Кбит/сек, 48,0 КГц

Скриншоты




Media Info

General
Unique ID : 177853698168593467773955269797531603927 (0x85CD605558CE70E68CEC56BE125BD3D7)
Complete name : E:\STEREO\House Of Wax_1080p_Rip by Dag13.mkv
Format : Matroska
Format version : Version 2
File size : 17.2 GiB
Duration : 1h 28mn
Overall bit rate : 27.8 Mbps
Encoded date : UTC 2013-09-30 17:16:40
Writing application : mkvmerge v3.4.0 ('Rapunzel') сборка от May 15 2010 09:38:20
Writing library : libebml v0.8.0 + libmatroska v0.9.0
Video
ID : 1
Format : AVC
Format/Info : Advanced Video Codec
Format profile : High@L5.0
Format settings, CABAC : Yes
Format settings, ReFrames : 4 frames
Codec ID : V_MPEG4/ISO/AVC
Duration : 1h 28mn
Bit rate : 26.6 Mbps
Width : 1 920 pixels
Height : 2 160 pixels
Display aspect ratio : 0.889
Frame rate : 23.976 fps
Color space : YUV
Chroma subsampling : 4:2:0
Bit depth : 8 bits
Scan type : Progressive
Bits/(Pixel*Frame) : 0.268
Stream size : 16.4 GiB (96%)
Title : Rip bu Dag13
Writing library : x264 core 116 r2074 2641b9e
Encoding settings : cabac=1 / ref=4 / deblock=1:-3:-3 / analyse=0x3:0x113 / me=umh / subme=9 / psy=1 / psy_rd=1.00:0.00 / mixed_ref=1 / me_range=16 / chroma_me=1 / trellis=2 / 8x8dct=1 / cqm=0 / deadzone=21,11 / fast_pskip=1 / chroma_qp_offset=-2 / threads=9 / sliced_threads=0 / nr=0 / decimate=1 / interlaced=0 / bluray_compat=0 / constrained_intra=0 / bframes=6 / b_pyramid=2 / b_adapt=2 / b_bias=0 / direct=3 / weightb=1 / open_gop=0 / weightp=2 / keyint=250 / keyint_min=23 / scenecut=40 / intra_refresh=0 / rc_lookahead=60 / rc=crf / mbtree=1 / crf=19.0 / qcomp=0.60 / qpmin=1 / qpmax=69 / qpstep=4 / ip_ratio=1.40 / aq=1:1.00
Language : English
Default : No
Forced : No
Audio #1
ID : 2
Format : AC-3
Format/Info : Audio Coding 3
Mode extension : CM (complete main)
Codec ID : A_AC3
Duration : 1h 28mn
Bit rate mode : Constant
Bit rate : 192 Kbps
Channel(s) : 2 channels
Channel positions : Front: L R
Sampling rate : 48.0 KHz
Bit depth : 16 bits
Compression mode : Lossy
Stream size : 121 MiB (1%)
Language : Russian
Default : Yes
Forced : No
Audio #2
ID : 3
Format : AC-3
Format/Info : Audio Coding 3
Mode extension : CM (complete main)
Codec ID : A_AC3
Duration : 1h 28mn
Bit rate mode : Constant
Bit rate : 448 Kbps
Channel(s) : 2 channels
Channel positions : Front: L R
Sampling rate : 48.0 KHz
Bit depth : 16 bits
Compression mode : Lossy
Stream size : 283 MiB (2%)
Language : English
Default : No
Forced : No
На встроенных ТВ-плейерах показывать НЕ будет!!!
Остальные раздачи этого фильма (2)
Благодарности релизеру (3)

Торрент:

Статус:

Размер:

Зарегистрирован   [ 2013-09-30 21:42 ]

проверено

17.16 GB

 
 Мнение о фильме (42)

1, 2, 3  След.






Спасибо Вам за классику! Помню "Музей" 80-х, а про этот и не слышал. Посмотрим как снимали 3D в середине прошлого века!
 

спасибо за проделанную работу!
 

Русская дорога из данного релиза - http://files.mail.ru/90027F50A6A0462982F1117D9C04591F
 

Совершенно шикарное 3D, и весь фильм, поставленный в добротной, старомодной, основательной манере, которой давно уже нет, и которая вызывает добрые ностальгические чувства. Современным 3D халтурщикам есть чему поучиться.
P.S. Фильм однозначно в коллекцию!
 

ash61, Спасибо, еще один "бриллиант" в коллекцию. Один уже есть с Грейс Келли "В случае убийства набирайте "М" 1954 года. Благодарствую.
 

Спасибо за раздачу!Хороший фильм!Классное 3D,особенно для старого фильма!
 

НИЧЕГО КЛАССНОГО В ЭТОМ 3Д НЕ ВИЖУ, КАК И САМ ФИЛЬМ.
 

miwka Ну а зачем же сообщать о своей беде такими большими буквами ?
 

капс лок) разве я написал что то о беде?
 

miwka,
НИЧЕГО КЛАССНОГО В ЭТОМ 3Д НЕ ВИЖУ
А в каком тогда видите? Приведите примеры, интересно.
 

Ещё только качаю, но уже предвкушаю удовольствие!
Огромное спасибо.
 

Рождественская история, Аватар, Хранитель снов, Оз: великий и ужасный, Охотники на ведьм например. Аватар это само собой: точка отсчета 3d! Те фильмы, которые специально создавались для 3д, вот от таких получаешь удовольствие от просмотра. Но и Fake-ое 3д бывает достойно сделано (Охотники на ведьм).
О фильме:
Понятно что это 53 год: таким 3д нас совсем не удивишь. Для того времени первая попытка довольна неплоха. Но как кино - простой фильм, никаких ужасов, ничем не выдающаяся игра актеров (конечно по моему мнению; у фильма нет никаких наград). Если б я знал, то скачал в 1080, и получил бы больше удовольствия.
Не понимаю причем тут "беда". Я в интернете практически не пишу (вот это бред;вспомните картинку как мама смотрит на сына, а он ей в ответ:"Мам, в интернете опять кто то не прав..."), но коль хотите ответ, так получайте: для 1953 года вполне хороший триллер и попытка съемки 3д, для нас (для меня уж, ладно) на 1 разок, но не в 3д.
 

miwka, Перечислили фильмы, в которых 3D или сделано, или доработано на компьютере. С контролем уже при съемке очками или автостереоскопическими дисплеями.
А тут - пленочка. И что получается - можно увидеть только после проявки уже после съемки! Вот таким качественным 3D , снятым на пленку, да еще и первый опыт студии, как раз и можно удивить. Особенно в сравнении с многими и многими современными поделками.
P.S. Из своего списка можете исключить Оза - кроме начала, 3D совершенно не впечатляет. Спасибо, что ответили.
 

на вкус и цвет как все мы знаем...
 

А по моему -отлично!Вот что значит качество!
 

Смотрю с интересом. 3D создаёт ощущение жутковатой реальности. Спасибо за раздачу.
 

Что-бы не говорили, но есть в старых фильмах своя особая притягательнось. Да, тут нет таких спецэфектов как в Аватаре, но не надо сравнивать компьютерную графику с живой игрой актеров. 3Д отличное, намного лучше чем в большинстве современных фильмах, а это всетаки 1953 год. Да и в целом фильм не плох, особенно для любителей "ретро".
 

hauptmann64, +1!
 

Большое спасибо.Сюжет,конечно,не представляет особого интереса,но то что фильм снят в середине прошлого столетия,очень интересно.К тому же ПЕРВЫЙ фильм теперь уже очень известной компании.
 

Спасибо.
 

Страница 1 из 3

1, 2, 3  След.