Торренты   
 
 

 

Сталинград в 3D, Трейлер №3 / Stalingrad in 3D, Trailer №3 [2013 г., DCPrip, Anamorph OverUnder]

Рейтинг 3D:
21 голосов
7.6
Рейтинг фильма:
17 голосов
7.1
 
Вы должны быть авторизированы,
чтобы ставить оценки


Сталинград в 3D, Трейлер №3
Stalingrad in 3D, Trailer №3
--Год выпуска: 2013
Страна:Россия
Режиссер: Фёдор Бондарчук
Жанр: военный, драма, боевик
Продолжительность: 00:02:39--Описание: Потерпев неудачу при попытке перейти Волгу и начать контрнаступление на немецкую армию, советские войска вынуждены отступать. Однако нескольким солдатам удалось перебраться на берег противника. Они остаются в меньшинстве и укрываются в прибрежном доме, где встречают девушку. Её дом заняли немцы, а сама она не успела покинуть линию фронта. На фоне самого кровопролитного в истории человечества сражения развивается история любви, и солдатам теперь любой ценой надо защитить эту девушку.--Доп. инфо: Первый трейлер находится >>>ЗДЕСЬ<<<, а второй >>>ЗДЕСЬ<<<--Формат 3d: Anamorph OverUnder (левый ракурс верхний)
Качество: DCPrip
Контейнер: mkv
Видео: AVC / 1920х1080 / 24 fps / 15.4 Mbps
Аудио: AC3 / 6 ch / 448 Kbps / 48 KHz--

MediaInfo&#58;

Код:
General
Unique ID                      : 236241902401215403724007333931257359045 (0xB1BA890FAB71EFEB941DEA3FEB16EAC5)
Complete name                  : L:\_3D\3D-Trailers\_2013\3D\Trailer3_Stalingrad(3D)HalfOU-abq.mkv
Format                         : Matroska
Format version                 : Version 2
File size                      : 306 MiB
Duration                       : 2mn 39s
Overall bit rate               : 16.1 Mbps
Encoded date                   : UTC 2013-09-23 13:32:57
Writing application            : mkvmerge v4.0.0 ('The Stars were mine') сборка от Jun  6 2010 16:18:42
Writing library                : libebml v1.0.0 + libmatroska v1.0.0
Video
ID                             : 1
Format                         : AVC
Format/Info                    : Advanced Video Codec
Format profile                 : High@L4.1
Format settings, CABAC         : Yes
Format settings, ReFrames      : 4 frames
Codec ID                       : V_MPEG4/ISO/AVC
Duration                       : 2mn 39s
Bit rate                       : 15.4 Mbps
Width                          : 1 920 pixels
Height                         : 1 080 pixels
Display aspect ratio           : 16:9
Frame rate mode                : Constant
Frame rate                     : 24.000 fps
Color space                    : YUV
Chroma subsampling             : 4:2:0
Bit depth                      : 8 bits
Scan type                      : Progressive
Bits/(Pixel*Frame)             : 0.309
Stream size                    : 291 MiB (95%)
Writing library                : x264 core 116 r2074 2641b9e
Encoding settings              : cabac=1 / ref=4 / deblock=1:-3:-3 / analyse=0x3:0x113 / me=umh / subme=9 / psy=1 / psy_rd=1.00:0.15 / mixed_ref=1 / me_range=32 / chroma_me=1 / trellis=2 / 8x8dct=1 / cqm=0 / deadzone=21,11 / fast_pskip=1 / chroma_qp_offset=-3 / threads=6 / sliced_threads=0 / nr=0 / decimate=1 / interlaced=0 / bluray_compat=0 / constrained_intra=0 / bframes=6 / b_pyramid=2 / b_adapt=2 / b_bias=0 / direct=3 / weightb=1 / open_gop=0 / weightp=2 / keyint=240 / keyint_min=24 / scenecut=40 / intra_refresh=0 / rc_lookahead=60 / rc=crf / mbtree=1 / crf=18.0 / qcomp=0.85 / qpmin=0 / qpmax=69 / qpstep=4 / vbv_maxrate=40000 / vbv_bufsize=40000 / crf_max=0.0 / nal_hrd=none / frame-packing=4 / ip_ratio=1.40 / aq=1:0.70
Language                       : English
Default                        : No
Forced                         : No
Audio
ID                             : 2
Format                         : AC-3
Format/Info                    : Audio Coding 3
Mode extension                 : CM (complete main)
Format settings, Endianness    : Big
Codec ID                       : A_AC3
Duration                       : 2mn 39s
Bit rate mode                  : Constant
Bit rate                       : 448 Kbps
Channel(s)                     : 6 channels
Channel positions              : Front: L C R, Side: L R, LFE
Sampling rate                  : 48.0 KHz
Bit depth                      : 16 bits
Compression mode               : Lossy
Stream size                    : 8.50 MiB (3%)
Language                       : Russian
Default                        : Yes
Forced                         : No

Скриншоты



Благодарности релизеру (18)

Торрент:

Статус:

Размер:

Зарегистрирован   [ 2013-10-04 09:47 ]

проверено

306 MB

 
 Мнение о фильме (11)





Мнение не изменилось - "Кровь и песок" + "300 спартанцев". Лубок.
 

Режиссер насмотрелся компьютерных игр и снял с уклоном на западного зрителя и нашего подростающего поколения. Но 3D на уровне.
 

не гоните-нет фильмов про ВОВ=и федя может не прав=но 9 роту я смотрю=регулярно=тоже не было ничего в реале....
 

3д и фильм хорошие. Хотелось бы посмотреть весь фильм.
 
Виталий Цыганов Профиль 08-Окт-2013 09:40

отличный трейлер!с большим удовольствием посматрел фильм целиком!
 

к черту лысого - ему только ролики рекламные или музыкальные снимать.
 

смотрел фильм..3д на уровне вылетов нет..фильм на сегодня из нового российского проката очень даже не плох..а главное нет там куценко
 

Глубина эффекта 3D
 

По трейлеру судить о фильме сложно.Тем более зная фильмографию Бондарчука.3Д в трейлере может оказаться всем 3Д в фильме.В кинотеатр точно не пойду.
 

Оценки ставить не буду т.к по трейлеру ничего не понятно. Увидим весь фильм тогда и оценим!
 

Даже смотреть не буду. Сталинград это самая кровопролитная битва в мировой истории, это великий подвиг советских солдат. Это около миллиона погибших и раненых. На Мамаевом кургане все стены покрыты именами погибших. Сталинград это великое, эпическое событие. И именно таким его должны помнить мы и должны знать за рубежом.
Может и была там Катя, которую любили пять там или семь солдат и может была девка которая с немцем спала. Но это такая мелочь, что просто не достойно называться Сталинградом.
Как сказал Гоблин в свей рецензии, назвали бы фильм- "Они сражались за Катю" и не было бы вопросов. Но только не Сталинград. Не нужно так принижать подвиг наших предков.