Торренты   
 
 

 

Кот Гром и заколдованный дом в 3D, Трейлер / The House of Magic in 3D, Trailer [2014 г., DCPrip, Anamorph OverUnder]

Рейтинг 3D:
20 голосов
7.7
Рейтинг фильма:
16 голосов
5.9
 
Вы должны быть авторизированы,
чтобы ставить оценки


Кот Гром и заколдованный дом в 3D, Трейлер
The House of Magic in 3D, Trailer
--Год выпуска: 2014
Страна: США, Бельгия
Режиссер: Джереми Дегрусон, Бен Стассен
Жанр: мультфильм, семейный
Продолжительность: 00:01:25--Описание: Спасаясь от проливного дождя, любопытный уличный кот попадает в таинственный особняк, принадлежащий старому фокуснику Лоренцо. В доме иллюзиониста живет немало зверей, и далеко не все они рады новому обитателю. Особенно подозрительно относятся к нему кролик Джек и мышка Минни. Но когда Лоренцо оказывается в больнице, а его племянник решает продать дядюшкино жилье, зверькам приходится объединиться. И в плане по спасению дома коту предстоит сыграть очень важную роль.--Формат 3d: Anamorph OverUnder (левый ракурс верхний)
Качество: DCPrip
Контейнер: mkv
Видео: AVC / 1920х1080 / 24 fps / 10.9 Mbps
Аудио: AC3 / 6 ch / 448 Kbps / 48 KHz--

MediaInfo:

Код:
General
Unique ID                      : 178043394568455635675031722422783376745 (0x85F1E91686BB887BA96448B217F6FD69)
Complete name                  : L:\_3D\3D-Trailers\_2014\3D\Trailer_TheHouseOfMagic(3D)HalfOU-abq.mkv
Format                         : Matroska
Format version                 : Version 2
File size                      : 117 MiB
Duration                       : 1mn 24s
Overall bit rate               : 11.5 Mbps
Encoded date                   : UTC 2013-09-07 20:19:35
Writing application            : mkvmerge v4.0.0 ('The Stars were mine') сборка от Jun  6 2010 16:18:42
Writing library                : libebml v1.0.0 + libmatroska v1.0.0
Video
ID                             : 1
Format                         : AVC
Format/Info                    : Advanced Video Codec
Format profile                 : High@L4.1
Format settings, CABAC         : Yes
Format settings, ReFrames      : 4 frames
Codec ID                       : V_MPEG4/ISO/AVC
Duration                       : 1mn 24s
Bit rate                       : 10.9 Mbps
Width                          : 1 920 pixels
Height                         : 1 080 pixels
Display aspect ratio           : 16:9
Frame rate mode                : Constant
Frame rate                     : 24.000 fps
Color space                    : YUV
Chroma subsampling             : 4:2:0
Bit depth                      : 8 bits
Scan type                      : Progressive
Bits/(Pixel*Frame)             : 0.218
Stream size                    : 110 MiB (94%)
Writing library                : x264 core 116 r2074 2641b9e
Encoding settings              : cabac=1 / ref=4 / deblock=1:-3:-3 / analyse=0x3:0x113 / me=umh / subme=9 / psy=1 / psy_rd=1.00:0.15 / mixed_ref=1 / me_range=32 / chroma_me=1 / trellis=2 / 8x8dct=1 / cqm=0 / deadzone=21,11 / fast_pskip=1 / chroma_qp_offset=-3 / threads=6 / sliced_threads=0 / nr=0 / decimate=1 / interlaced=0 / bluray_compat=0 / constrained_intra=0 / bframes=6 / b_pyramid=2 / b_adapt=2 / b_bias=0 / direct=3 / weightb=1 / open_gop=0 / weightp=2 / keyint=240 / keyint_min=24 / scenecut=40 / intra_refresh=0 / rc_lookahead=60 / rc=crf / mbtree=1 / crf=18.0 / qcomp=0.85 / qpmin=0 / qpmax=69 / qpstep=4 / vbv_maxrate=40000 / vbv_bufsize=40000 / crf_max=0.0 / nal_hrd=none / frame-packing=4 / ip_ratio=1.40 / aq=1:0.70
Language                       : English
Default                        : No
Forced                         : No
Audio
ID                             : 2
Format                         : AC-3
Format/Info                    : Audio Coding 3
Mode extension                 : CM (complete main)
Format settings, Endianness    : Big
Codec ID                       : A_AC3
Duration                       : 1mn 24s
Bit rate mode                  : Constant
Bit rate                       : 448 Kbps
Channel(s)                     : 6 channels
Channel positions              : Front: L C R, Side: L R, LFE
Sampling rate                  : 48.0 KHz
Bit depth                      : 16 bits
Compression mode               : Lossy
Stream size                    : 4.52 MiB (4%)
Language                       : Russian
Default                        : Yes
Forced                         : No

Скриншоты

Благодарности релизеру (16)

Торрент:

Статус:

Размер:

Зарегистрирован   [ 2013-10-04 10:36 ]

проверено

117 MB

 
 Мнение о фильме (4)





Судя по трейлеру, в мультике будет отличное 3D и многочисленные вылеты. И сам мульт красиво снят. Будем ждать!
 

ИМХО по умолчанию установленный на "0" параметр 3DТV "Настройка общей трехмерной перспективы изображения от -5 до +5" - перенасыщен вблизи и обеднён вдали, то-есть ставлю -4 и лишь только тогда все вылеты* перестают быть назойливыми, и начинает просматриваться интересная галёрка.
 

Снят красочно, 3D - отличное. Будем ждать сам мультик.
 

Мульт отличный.Интересно посмотреть не только детям,но и взрослым.Всем советую.