Торренты   
 
 


Амитивилль 3-D / Amityville 3-D (Ричард Флайшер) [1983 г., BDRip, Full OverUnder]

Рейтинг 3D:
26 голосов
6.5
Рейтинг фильма:
28 голосов
6.1
 
Вы должны быть авторизированы,
чтобы ставить оценки


Амитивилль 3-D / Amityville 3-D
Год выпуска: 1983
Страна: США
Жанр: Ужасы, Триллер
Продолжительность: 01:33:08
Перевод: Профессиональный (двухголосый)
Режиссер: Ричард Флайшер
В ролях: Тони Робертс, Тесс Харпер, Роберт Джой, Кэнди Кларк, Джон Бил, Леора Дэна, Джон Харкинс, Лори Лафлин, Мег Райан, Нилл Бэрри, Петер Кованко
Описание: Разоблачив «спиритических мошенников», промышлявших в знаменитом на весь мир амитивилльском «доме с призраками», репортер журнала «Reveal» Джон Бэкстер решает купить себе известную недвижимость, тем более, что просят за проклятый дом сущие копейки. Будучи человеком не суеверным, Джон без страха переезжает в свое новое жилище, но вскоре с ним, его коллегами и родственниками, побывавшими в особняке, начинают происходить странные вещи. Решив дать всему логическое объяснение, Джон приглашает группу специалистов по исследованию паранормальных явлений, появление которых вызывает невиданную по своим масштабам разрушительную силу…
Релиз группы:
Формат 3D: OverUnder BDRip, Full
Видео: AVC, High@L4.0, 1920х1632, 23,976 кадра/сек, 16,2 Мбит/сек

Скриншоты




Media Info

Общее
Уникальный идентификатор : 200112296838813712998426325170584259966 (0x968C39FA14FB3B0F8C01F0EF59538D7E)
Полное имя : E:\STEREO\Amityville3_1080p_Rip by Dag13.mkv
Формат : Matroska
Версия формата : Version 2
Размер файла : 12,1 Гбайт
Продолжительность : 1 ч. 33 м.
Общий поток : 18,5 Мбит/сек
Дата кодирования : UTC 2013-10-07 13:03:15
Программа кодирования : mkvmerge v3.4.0 ('Rapunzel') сборка от May 15 2010 09:38:20
Библиотека кодирования : libebml v0.8.0 + libmatroska v0.9.0
Видео
Идентификатор : 1
Формат : AVC
Формат/Информация : Advanced Video Codec
Профиль формата : High@L5.0
Параметр CABAC формата : Да
Параметр ReFrames формата : 4 кадра
Идентификатор кодека : V_MPEG4/ISO/AVC
Продолжительность : 1 ч. 33 м.
Битрейт : 16,2 Мбит/сек
Ширина : 1920 пикселей
Высота : 1632 пикселя
Соотношение сторон : 1,176
Режим частоты кадров : Постоянный
Частота кадров : 23,976 кадра/сек
Цветовое пространство : YUV
Субдискретизация насыщенности : 4:2:0
Битовая глубина : 8 бит
Тип развёртки : Прогрессивная
Бит/(Пиксели*Кадры) : 0.216
Размер потока : 10,5 Гбайт (87%)
Заголовок : Rip by Dag13
Библиотека кодирования : x264 core 116 r2074 2641b9e
Настройки программы : cabac=1 / ref=4 / deblock=1:-3:-3 / analyse=0x3:0x113 / me=umh / subme=9 / psy=1 / psy_rd=1.00:0.00 / mixed_ref=1 / me_range=16 / chroma_me=1 / trellis=2 / 8x8dct=1 / cqm=0 / deadzone=21,11 / fast_pskip=1 / chroma_qp_offset=-2 / threads=9 / sliced_threads=0 / nr=0 / decimate=1 / interlaced=0 / bluray_compat=0 / constrained_intra=0 / bframes=6 / b_pyramid=2 / b_adapt=2 / b_bias=0 / direct=3 / weightb=1 / open_gop=0 / weightp=2 / keyint=250 / keyint_min=23 / scenecut=40 / intra_refresh=0 / rc_lookahead=60 / rc=crf / mbtree=1 / crf=19.0 / qcomp=0.60 / qpmin=1 / qpmax=69 / qpstep=4 / ip_ratio=1.40 / aq=1:1.00
Язык : English
Default : Нет
Forced : Нет
Аудио #1
Идентификатор : 2
Формат : AC-3
Формат/Информация : Audio Coding 3
Расширение режима : CM (complete main)
Параметр Endianness формата : Big
Идентификатор кодека : A_AC3
Продолжительность : 1 ч. 33 м.
Вид битрейта : Постоянный
Битрейт : 448 Кбит/сек
Каналы : 6 каналов
Расположение каналов : Front: L C R, Side: L R, LFE
Частота : 48,0 КГц
Битовая глубина : 16 бит
Метод сжатия : С потерями
Размер потока : 298 Мбайт (2%)
Язык : Russian
Default : Да
Forced : Нет
Аудио #2
Идентификатор : 3
Формат : DTS
Формат/Информация : Digital Theater Systems
Режим : 16
Параметр Endianness формата : Big
Идентификатор кодека : A_DTS
Продолжительность : 1 ч. 33 м.
Вид битрейта : Постоянный
Битрейт : 1509 Кбит/сек
Каналы : 6 каналов
Расположение каналов : Front: L C R, Side: L R, LFE
Частота : 48,0 КГц
Битовая глубина : 24 бит
Метод сжатия : С потерями
Размер потока : 1005 Мбайт (8%)
Язык : English
Default : Нет
Forced : Нет
На встроенных ТВ-плейерах показывать НЕ будет!!!
Остальные раздачи этого фильма (3)
Благодарности релизеру (6)

Торрент:

Статус:

Размер:

Зарегистрирован   [ 2013-10-07 18:02 ]

проверено

12.05 GB

 
 Мнение о фильме (13)





Хороший старый фильм ужасов. Посмотрел в 3Д с удовольствием.
 
Алексей Вахляев Профиль 09-Окт-2013 08:49

3D настолько сильное - что аж глаза выворачивает. Перегнули палку авторы. Даже неприятно немного и напряжно. Но честное.
 

Спасибо за старый , добрый фильм!!!
 

С 3D что то перемудрили,смотреть не комфортно.Минут через 10 3D отрубил.Ещё через десять минут,перемотал фильм в самый конец... ))) Но за раздачу,труды,автору всё равно спасибо. ;-)
 

Не понравился!
 

скачал ради интереса."пролистал" несколько сцен. смотреть не стал.удалил.
 

Полностью поддерживаю amadeus1979.
 

вы там чего, угараете чтоли????? звука - никакой, виды - никакой, с женой через четыре минуты после начала отрубили!!!
 
александр54 Профиль 08-Янв-2014 03:03

где тут кнопка - оценку поставить минус десять?????
 
александр54 Профиль 08-Янв-2014 03:06

На LG CINEMA - отличный 3D эффект. Очень реалистично. Везде бы такое 3D. Вопрос, почему в 1983 году 3D лучше, чем в 2013, остается открытым.
Глаза не болели и не у кого не выворачивало. Смотрели вчетвером. Всем понравилось.
 

3D на LG 47LA620V просто класс. Фильм классика смотрели с интересом.
 

мне то же фильм понравился...хоть и старый но я его посмотрела впервые. Качество и правда удивило...такое объёмное 3d я просто не видела ещё. Оставила себе в коллекции. СПАСИБО релизёру !!!!!!!!!!!!!!!!!!!!!!
 

3d тут настолько мощное, что его невозможно смотреть. отключить авто 3d и углубить на полную тогда смотреть можно