Торренты   
 
 


Амитивилль 3-D / Amityville 3-D (1983, BDRip, half1080p, Anamorph OverUnder)

Рейтинг 3D:
26 голосов
6.5
Рейтинг фильма:
28 голосов
6.1
 
Вы должны быть авторизированы,
чтобы ставить оценки


Амитивилль 3-D
Amityville 3-D

Год выпуска: 1983
Страна: США (Metro-GoldWyn-Mayer, Orion Pictures, Dino De Laurentiis Corp.)
Жанр: Ужасы, Триллер
Продолжительность: 01:33:08
Перевод: Профессиональный двухголосый закадровый (Лицензия R5)
Режиссер: Ричард Флайшер / Richard Fleischer
В ролях: Тони Робертс (John Baxter), Тесс Харпер (Nancy Baxter), Роберт Джой (Elliot West), Кэнди Кларк (Melanie), Джон Бил (Harold Caswell), Леора Дэна (Emma Caswell), Джон Харкинс (Clifford Sanders), Лори Лафлин (Susan Baxter), Мег Райан (Lisa), Нилл Бэрри (Jeff), Петер Кованко (Roger)
Описание: Разоблачив «спиритических мошенников», промышлявших в знаменитом на весь мир амитивилльском «доме с призраками», репортер журнала «Reveal» Джон Бэкстер решает купить себе известную недвижимость, тем более, что просят за проклятый дом сущие копейки. Будучи человеком не суеверным, Джон без страха переезжает в свое новое жилище, но вскоре с ним, его коллегами и родственниками, побывавшими в особняке, начинают происходить странные вещи. Решив дать всему логическое объяснение, Джон приглашает группу специалистов по исследованию паранормальных явлений, появление которых вызывает невиданную по своим масштабам разрушительную силу…
Доп. информация: 3Д глубокое, как обычно на старых фильмах.
Качество звука плохое - такое было на лицензионном DVD9.-Премьера: 18 ноября 1983
Релиз на DVD: 17 января 2008

. .
-Качество: BDRip (by Ash61)
Контейнер: MKV
Формат 3D: Anamorph OverUnder / Вертикальная анаморфная стереопара
Порядок ракурсов: левый ракурс первый-Видео: AVC / 23,976 fps / 1920х1080p / 14.1 Mbps
Аудио:
#1 - Русский / AC3 / 48 KHz / 5.1 ch / 448 Kbps (DVO - R5 [CP Digital - 2007])
#2 - Английский / AC3 / 48 KHz / 5.1 ch / 640 Kbps (Original)
Субтитры: Отсутствуют

MediaInfo

General
Unique ID : 181460032712654553726583440409488855109 (0x8883EE5AAC9A08ABA8C047E73E691045)
Complete name : E:\Downloads\Amityville3-D(1983)3D-halfOU(Ash61).mkv
Format : Matroska
Format version : Version 2
File size : 10.1 GiB
Duration : 1h 33mn
Overall bit rate : 15.5 Mbps
Movie name : Амитивилль 3-D / Amityville 3-D (1983) 3D
Encoded date : UTC 2013-10-06 18:31:06
Writing application : mkvmerge v5.8.0 ('No Sleep / Pillow') built on Sep 2 2012 15:37:04
Writing library : libebml v1.2.3 + libmatroska v1.3.0
Video
ID : 1
Format : AVC
Format/Info : Advanced Video Codec
Format profile : High@L4.1
Format settings, CABAC : Yes
Format settings, ReFrames : 4 frames
Codec ID : V_MPEG4/ISO/AVC
Duration : 1h 33mn
Bit rate : 14.1 Mbps
Width : 1 920 pixels
Height : 1 080 pixels
Display aspect ratio : 16:9
Frame rate mode : Constant
Frame rate : 23.976 fps
Color space : YUV
Chroma subsampling : 4:2:0
Bit depth : 8 bits
Scan type : Progressive
Bits/(Pixel*Frame) : 0.284
Stream size : 9.18 GiB (91%)
Title : BDRip by Ash61
Writing library : x264 core 129 r2245 bc13772
Encoding settings : cabac=1 / ref=4 / deblock=1:-3:-3 / analyse=0x3:0x113 / me=umh / subme=10 / psy=1 / psy_rd=1.00:0.15 / mixed_ref=1 / me_range=32 / chroma_me=1 / trellis=2 / 8x8dct=1 / cqm=0 / deadzone=21,11 / fast_pskip=1 / chroma_qp_offset=-3 / threads=12 / lookahead_threads=2 / sliced_threads=0 / nr=0 / decimate=1 / interlaced=0 / bluray_compat=0 / constrained_intra=0 / bframes=9 / b_pyramid=2 / b_adapt=2 / b_bias=0 / direct=3 / weightb=1 / open_gop=0 / weightp=2 / keyint=250 / keyint_min=23 / scenecut=40 / intra_refresh=0 / rc_lookahead=60 / rc=crf / mbtree=1 / crf=17.0 / qcomp=0.70 / qpmin=0 / qpmax=69 / qpstep=4 / vbv_maxrate=40000 / vbv_bufsize=30000 / crf_max=0.0 / nal_hrd=none / frame-packing=4 / ip_ratio=1.40 / aq=1:0.70
Language : English
Default : Yes
Forced : No
Audio #1
ID : 2
Format : AC-3
Format/Info : Audio Coding 3
Mode extension : CM (complete main)
Format settings, Endianness : Big
Codec ID : A_AC3
Duration : 1h 33mn
Bit rate mode : Constant
Bit rate : 448 Kbps
Channel(s) : 6 channels
Channel positions : Front: L C R, Side: L R, LFE
Sampling rate : 48.0 KHz
Bit depth : 16 bits
Compression mode : Lossy
Stream size : 298 MiB (3%)
Title : Двухголосый закадровый - Лицензия R5 (edit by Ash61)
Language : Russian
Default : Yes
Forced : No
Audio #2
ID : 3
Format : AC-3
Format/Info : Audio Coding 3
Mode extension : CM (complete main)
Format settings, Endianness : Big
Codec ID : A_AC3
Duration : 1h 33mn
Bit rate mode : Constant
Bit rate : 640 Kbps
Channel(s) : 6 channels
Channel positions : Front: L C R, Side: L R, LFE
Sampling rate : 48.0 KHz
Bit depth : 16 bits
Compression mode : Lossy
Stream size : 426 MiB (4%)
Title : Original
Language : English
Default : No
Forced : No
Menu
00:00:00.000 : :1
00:11:51.336 : :2
00:18:31.110 : :3
00:25:33.157 : :4
00:32:13.557 : :5
00:39:30.994 : :6
00:45:13.711 : :7
00:51:05.062 : :8
00:57:47.089 : :9
01:04:31.493 : :10
01:10:41.237 : :11
01:17:08.249 : :12

Для оценки 3Д - Анимированные скрины












Техн. детали съёмки

  • Формат изображения: 2.35 : 1
  • Формат копии: 35 mm
  • Формат съёмок: 35 mm
  • Изображение: цветное
  • Остальные раздачи этого фильма (3)
    Благодарности релизеру (18)

    Торрент:

    Статус:

    Размер:

    Зарегистрирован   [ 2013-10-07 21:14 ]

    проверено

    10.08 GB

     
     Мнение о фильме (13)





    Хороший старый фильм ужасов. Посмотрел в 3Д с удовольствием.
     
    Алексей Вахляев Профиль 09-Окт-2013 08:49

    3D настолько сильное - что аж глаза выворачивает. Перегнули палку авторы. Даже неприятно немного и напряжно. Но честное.
     

    Спасибо за старый , добрый фильм!!!
     

    С 3D что то перемудрили,смотреть не комфортно.Минут через 10 3D отрубил.Ещё через десять минут,перемотал фильм в самый конец... ))) Но за раздачу,труды,автору всё равно спасибо. ;-)
     

    Не понравился!
     

    скачал ради интереса."пролистал" несколько сцен. смотреть не стал.удалил.
     

    Полностью поддерживаю amadeus1979.
     

    вы там чего, угараете чтоли????? звука - никакой, виды - никакой, с женой через четыре минуты после начала отрубили!!!
     
    александр54 Профиль 08-Янв-2014 03:03

    где тут кнопка - оценку поставить минус десять?????
     
    александр54 Профиль 08-Янв-2014 03:06

    На LG CINEMA - отличный 3D эффект. Очень реалистично. Везде бы такое 3D. Вопрос, почему в 1983 году 3D лучше, чем в 2013, остается открытым.
    Глаза не болели и не у кого не выворачивало. Смотрели вчетвером. Всем понравилось.
     

    3D на LG 47LA620V просто класс. Фильм классика смотрели с интересом.
     

    мне то же фильм понравился...хоть и старый но я его посмотрела впервые. Качество и правда удивило...такое объёмное 3d я просто не видела ещё. Оставила себе в коллекции. СПАСИБО релизёру !!!!!!!!!!!!!!!!!!!!!!
     

    3d тут настолько мощное, что его невозможно смотреть. отключить авто 3d и углубить на полную тогда смотреть можно