Торренты   
 
 

 

Тихоокеанский рубеж / Pacific Rim (Гильермо дель Торо) (2013 г., BDRip, half1080p, Anamorph OverUnder)

Рейтинг 3D:
83 голосов
7.8
Рейтинг фильма:
88 голосов
7.1
 
Вы должны быть авторизированы,
чтобы ставить оценки


Тихоокеанский рубеж / Pacific Rim
Год выпуска: 2013
Страна: США
Жанр: фантастика, фэнтези, боевик, приключения,
Продолжительность: 02:11:19
Перевод: Любительский многоголосый закадровый (Пиратский) + Оригинал
Режиссер: Гильермо дель Торо
Продюссер: Джон Дж. Джашни, Мэри Пэрент, Томас Тулл
Сценарий: Трэвис Бичем, Гильермо дель Торо
Бюджет: $190 000 000
Премьера в мире: 2 июля 2013

В ролях: Чарли Ханнэм, Идрис Эльба, Ринко Кикути, Роберт Казински, Макс Мартини, Чарли Дэй, Берн Горман, Клифтон Коллинз мл., Рон Перлман, Диего Клаттенхофф,
Описание: Когда из морских глубин поднялись легионы чудовищ, известных как Кайдзу, началась война, которой суждено было забрать миллионы жизней и свести «человеческие ресурсы» почти к нулю всего за несколько лет. Чтобы сражаться с пришельцами, было создано специальное оружие: огромные роботы, названные Джегерами, они управлялись одновременно двумя пилотами, чьи сознания соединены с помощью нейронной связи. Но даже Джегеры оказываются почти бессильны перед лицом безжалостных Кайдзу. На грани поражения у защитников человечества нет выбора, кроме как обратиться к двум весьма сомнительным героям — никому не нужному бывшему пилоту и неопытному стажеру — которые объединились, чтобы повести в бой некогда легендарного, но сейчас устаревшего Джегера. Вместе они оказываются единственной надеждой человечества, последним препятствием перед надвигающимся апокалипсисом.

Формат 3D: Half OverUnder / Вертикальная анаморфная стереопара
Качество: BDRip 1080p
Формат: MKV
Видео кодек: H.264
Аудио кодек: AC3
Видео: x264, 1920 x 1080, (16:9) 23.976 fps, 12,3 Мбит/сек, (0.247 bit/pixel)
Аудио#1: Русский / AC3 / 48 KHz / 6 ch / 384 Kbps (Пиратский)
Аудио#2: Английский / AC3 / 48 KHz / 6 ch / 384 Kbps

Скриншоты

-

MediaInfo

Общее
Уникальный идентификатор : 213683744756773169234701692610908037444 (0xA0C1FE051E14721F840FCBB97CB8A144)
Полное имя : E:Pacific.Rim.3D.Half-OU.2013.BDRip.1080p.mkv
Формат : Matroska
Версия формата : Version 4 / Version 2
Размер файла : 12,2 Гбайт
Продолжительность : 2 ч. 11 м.
Общий поток : 13,3 Мбит/сек
Название фильма : Тихоокеански​й рубеж / Pacific Rim 3D Half-OU 2013 BDRip 1080p.x264-PublicHD
Дата кодирования : UTC 2013-10-08 04:48:27
Программа кодирования : mkvmerge v6.2.0 ('Promised Land') built on Apr 28 2013 12:22:01
Библиотека кодирования : libebml v1.3.0 + libmatroska v1.4.0
Видео
Идентификатор : 1
Формат : AVC
Формат/Информация : Advanced Video Codec
Профиль формата : High@L4.1
MultiView_Count : 2
MultiView_Layout : Top-Bottom (left eye first)
Параметр CABAC формата : Да
Параметр ReFrames формата : 4 кадра
Идентификатор кодека : V_MPEG4/ISO/AVC
Продолжительность : 2 ч. 11 м.
Битрейт : 12,3 Мбит/сек
Ширина : 1920 пикселей
Высота : 1080 пикселей
Соотношение сторон : 16:9
Частота кадров : 23,976 кадра/сек
Цветовое пространство : YUV
Субдискретизация насыщенности : 4:2:0
Битовая глубина : 8 бит
Тип развёртки : Прогрессивная
Бит/(Пиксели*Кадры) : 0.247
Размер потока : 11,3 Гбайт (92%)
Заголовок : Pacific Rim 3D Half-OU 2013 BDRip 1080p.mkv
Язык : English
Аудио #1
Идентификатор : 2
Формат : AC-3
Формат/Информация : Audio Coding 3
Расширение режима : CM (complete main)
Идентификатор кодека : A_AC3
Продолжительность : 2 ч. 11 м.
Вид битрейта : Постоянный
Битрейт : 384 Кбит/сек
Каналы : 6 каналов
Расположение каналов : Front: L C R, Side: L R, LFE
Частота : 48,0 КГц
Битовая глубина : 16 бит
Метод сжатия : С потерями
Размер потока : 361 Мбайт (3%)
Заголовок : Dub (Пиратский) AC3. GORESEWAGE
Язык : Russian
Аудио #2
Идентификатор : 3
Формат : AC-3
Формат/Информация : Audio Coding 3
Расширение режима : CM (complete main)
Идентификатор кодека : A_AC3
Продолжительность : 2 ч. 11 м.
Вид битрейта : Постоянный
Битрейт : 384 Кбит/сек
Каналы : 6 каналов
Расположение каналов : Front: L C R, Side: L R, LFE
Частота : 48,0 КГц
Битовая глубина : 16 бит
Метод сжатия : С потерями
Размер потока : 361 Мбайт (3%)
Заголовок : Original
Язык : English
Меню
00:00:00.000 : en:00:00:00.000
00:09:09.132 : en:00:09:09.132
00:18:35.823 : en:00:18:35.823
00:23:04.341 : en:00:23:04.341
00:33:00.395 : en:00:33:00.395
00:42:44.896 : en:00:42:44.896
00:50:01.665 : en:00:50:01.665
01:01:09.666 : en:01:01:09.666
01:14:45.106 : en:01:14:45.106
01:22:21.311 : en:01:22:21.311
01:32:09.941 : en:01:32:09.941
01:41:55.609 : en:01:41:55.609
01:51:37.858 : en:01:51:37.858
01:59:21.029 : en:01:59:21.029
02:02:17.830 : en:02:02:17.830
-
Благодарности релизеру (42)

Торрент:

Статус:

Размер:

Зарегистрирован   [ 2013-10-08 10:52 ]

поглощено

12.2 GB

 
Комментарии:





Кроме зрелищности в этом фильме больше искать ничего не надо.Просто смотреть спецэффекты.Пересмотрел еще раз и изменю оценку на 7.
 

Ну распотешили фильм!!!:)Прям даже и не знаю докачивать ли!:)
 

спасибо релизеру! качать не буду. фильм смотрел в кинотеатре. сюжет на один раз просмотра. 3д и постановка любого кадра - определенно, впечатляет!
 

товарищи! я конечно не такой эксперт как некоторые ..... но где вы тут увидели эфекты типа вылетов ? а звук так это вобще просто бубнилово какое то. короче полный отстой. качать не советую.
 

всем только вылеты подавай). а вылеты есть и выдвигы) машины, камни, вертолеты, при взрывах летят ошметки все и не всомнишь. на чем смотрим человек?
 

интересное кино и красиво
 
АНДРЕЙЗ0Л0Т0К Профиль 10-Окт-2013 16:04

Фильм не понравился.3-д на уровне.Автору респект и уважуха.
 

Спасибо за раздачу.
Сам фильм вполне, может быть. Думаю без 3д было бы гараздо хуже.
Короче как всегда..... фломастеры на вкус и цвет...разные
 

фильм для детей, 3д хорошее, потраченых денег не стоит!
 

фильм для просмотра на диване. По крайней мере досмотрел до конца, ни как другие. За счет эффектов он и зрелищный. 3D нормальное, вылетов не много, но не это главное... Перевод правда слабоват, оригинальный звук забивает, иногда даже и не слышно что говорят. Но я на это после 20-30 мин просмотра перестал обращать внимания. В общем посмотреть можно, насчет повторного просмотра вряд ли. Спасибо за фильм.
 

3D за...сь, голоса не отчётливо слышно
 

В принципе, красивый фильм с хорошими спецэффектами и 3D. Но пересматривать не хочу.
 

Стереоэффект исключительный, но сам фильм немного детский, хотя и интересный!
 

Фильм так-себе, ничего особенного, на 1 раз, а вот 3д очень даже неплохое.
 

Фильм можно смотреть с подростком-не похабный , 3Д нормальное.
 

Зрелищный фильм)))
 

Хороший красивый фильм-спасибо.
 

Топик был перенесен из форума 3D Фильмы в форум Архив

Zagruzin