Торренты   
 
 


The Smashing Pumpkins: Oceania 3D Live in NYC [2012 г., Anamorph OverUnder]

Рейтинг 3D:
4 голосов
5.8
Рейтинг фильма:
3 голосов
2.8
 
Вы должны быть авторизированы,
чтобы ставить оценки


The Smashing Pumpkins: Oceania 3D Live in NYC Год выпуска: 2012
Страна: США (Marta's Music, Rock Fuel Media)
Жанр: Alternative Rock
Продолжительность: 02:03:09
Описание: Концерт "Smashing Pumpkins: Океания 3D в Нью-Йорке" был снят в декабре прошлого года на Нью-Йоркской арене Barclay, где группа представила свой новый альбом "Океания" и свои лучшие, уже известные, хиты. Визуальное оформление шоу подготовил Шон Эванс, предыдущим проектом которого была помощь Роджеру Уотерсу (экс-Pink Floyd) в новейшей постановке "The Wall" ("Стена"). The Pumpkins использовали новейшие технологии для создания чего-то, ранее невиданного, всё это мастерски сняли в 3D и записали с 5.1 Surround Sound для полноты ваших аудиовизуальных ощущений!
Состав группы:
Billy Corgan - vocals, guitar;
Jeff Schroeder - guitar;
Nicole Fiorentino - bass guitar, backing vocals;
Mike Byrne - drums.
Треклист:
01. Quasar
02. Panopticon
03. The Celestials
04. Violet Rays
05. My Love Is Winter
06. One Diamond, One Heart
07. Pinwheels
08. Oceania
09. Pale Horse
10. The Chimera
11. Glissandra
12. Inkless
13. Wildflower
14. Space Oddity
15. X.Y.U
16. Disarm
17. Tonite Reprise
18. Tonight, Tonight
19. Bullet with Butterfly Wings
20. The Dream Machine
21. Hummer
Encore:
01. Ava Adore
02. Cherub Rock
03. Zero
Формат 3D: Anamorph OverUnder
Видео: AVC, High@L4.1, 1920х1080, 23,976 кадра/сек, 13,8 Мбит/сек
Аудио: Английский / AC3 / 48 KHz / 5.1 ch / 640 Kbps (Original)
Субтитры: Форсированные - Названия песен (made by Ash61)

Скриншоты

Media Info

Общее
Уникальный идентификатор : 185235639252164546500255737527644497398 (0x8B5B1620F45920748151EB782F8CA5F6)
Полное имя : H:\TheSmashingPumpkins.Oceania.3D.LiveInNYC.2012.BD3DRip.Half.OU.x264.AC3.3D-RuGroup.mkv
Формат : Matroska
Версия формата : Version 4 / Version 2
Размер файла : 12,7 Гбайт
Продолжительность : 2 ч. 3 м.
Общий поток : 14,8 Мбит/сек
Название фильма : The Smashing Pumpkins: Oceania 3D Live in NYC (2012) release 3D-RuGroup
Дата кодирования : UTC 2013-10-08 15:49:35
Программа кодирования : mkvmerge v6.3.0 ('You can't stop me!') built on Jul 19 2013 16:27:38
Библиотека кодирования : libebml v1.3.0 + libmatroska v1.4.1
Видео
Идентификатор : 1
Формат : AVC
Формат/Информация : Advanced Video Codec
Профиль формата : High@L4.1
Параметр CABAC формата : Да
Параметр ReFrames формата : 4 кадра
Идентификатор кодека : V_MPEG4/ISO/AVC
Продолжительность : 2 ч. 3 м.
Битрейт : 13,8 Мбит/сек
Ширина : 1920 пикселей
Высота : 1080 пикселей
Соотношение сторон : 16:9
Режим частоты кадров : Постоянный
Частота кадров : 23,976 кадра/сек
Цветовое пространство : YUV
Субдискретизация насыщенности : 4:2:0
Битовая глубина : 8 бит
Тип развёртки : Прогрессивная
Бит/(Пиксели*Кадры) : 0.278
Размер потока : 11,9 Гбайт (94%)
Библиотека кодирования : x264 core 130 r2273 b3065e6
Настройки программы : cabac=1 / ref=4 / deblock=1:-3:-3 / analyse=0x3:0x133 / me=umh / subme=9 / psy=1 / psy_rd=1.00:0.15 / mixed_ref=1 / me_range=32 / chroma_me=1 / trellis=2 / 8x8dct=1 / cqm=0 / deadzone=21,11 / fast_pskip=0 / chroma_qp_offset=-3 / threads=12 / lookahead_threads=2 / sliced_threads=0 / nr=0 / decimate=1 / interlaced=0 / bluray_compat=0 / constrained_intra=0 / bframes=8 / b_pyramid=2 / b_adapt=2 / b_bias=0 / direct=3 / weightb=1 / open_gop=0 / weightp=2 / keyint=250 / keyint_min=23 / scenecut=40 / intra_refresh=0 / rc_lookahead=60 / rc=crf / mbtree=1 / crf=18.0 / qcomp=0.60 / qpmin=0 / qpmax=69 / qpstep=4 / vbv_maxrate=50000 / vbv_bufsize=62500 / crf_max=0.0 / nal_hrd=none / ip_ratio=1.40 / aq=1:0.90
Язык : English
Default : Да
Forced : Нет
Аудио
Идентификатор : 2
Формат : AC-3
Формат/Информация : Audio Coding 3
Расширение режима : CM (complete main)
Параметр Endianness формата : Big
Идентификатор кодека : A_AC3
Продолжительность : 2 ч. 3 м.
Вид битрейта : Постоянный
Битрейт : 640 Кбит/сек
Каналы : 6 каналов
Расположение каналов : Front: L C R, Side: L R, LFE
Частота : 48,0 КГц
Битовая глубина : 16 бит
Метод сжатия : С потерями
Размер потока : 564 Мбайт (4%)
Default : Да
Forced : Нет
Текст
Идентификатор : 3
Формат : UTF-8
Идентификатор кодека : S_TEXT/UTF8
Идентификатор кодека/Информация : UTF-8 Plain Text
Заголовок : Форсированные
Язык : English
Default : Да
Forced : Нет
Меню
00:00:00.000 : :1. Quasar
00:05:53.353 : :2. Panopticon
00:09:32.614 : :3. The Celestials
00:13:15.169 : :4. Violet Rays
00:17:33.678 : :5. My Love Is Winter
00:21:04.597 : :6. One Diamond, One Heart
00:24:59.623 : :7. Pinwheels
00:30:46.553 : :8. Oceania
00:40:38.019 : :9. Pale Horse
00:45:14.128 : :10. The Chimera
00:49:25.629 : :11. Glissandra
00:54:19.548 : :12. Inkless
00:57:13.472 : :13. Wildflower
01:02:14.439 : :14. Space Oddity
01:09:09.270 : :15. X.Y.U
01:19:37.272 : :16. Disarm
01:22:53.927 : :17. Tonite Reprise
01:24:18.136 : :18. Tonight, Tonight
01:28:37.437 : :19. Bullet with Butterfly Wings
01:33:29.187 : :20. The Dream Machine
01:40:29.565 : :21. Hummer
01:47:54.385 : :22. Encore: Ava Adore
01:53:04.653 : :23. Encore: Cherub Rock
01:57:48.812 : :24. Encore: Zero
02:01:06.259 : :25. Credits
Благодарности релизеру (13)

Торрент:

Статус:

Размер:

Зарегистрирован   [ 2013-10-08 20:16 ]

проверено

12.71 GB