Торренты   
 
 

 

Тихоокеанский рубеж / Pacific Rim (Гильермо дель Торо) [2013 г., BDRemux mkv]

Рейтинг 3D:
204 голосов
8.1
Рейтинг фильма:
201 голосов
7.3
 
Вы должны быть авторизированы,
чтобы ставить оценки


Тихоокеанский рубеж / Pacific Rim
Год выпуска: 2013
Страна: США
Жанр: Фантастика, Боевик, Приключения
Продолжительность: 02:11:19
Перевод: Профессиональный (многоголосый, закадровый)
Режиссер: Гильермо дель Торо
В ролях: Чарли Ханнэм, Идрис Эльба, Рон Перлман, Чарли Дэй, Клифтон Коллинз мл., Берн Горман, Роберт Мэйллет, Роберт Казински, Ринко Кикути, Хезер Дорксен и др.
Описание: Когда из морских глубин поднялись легионы чудовищ, известных как Кайдзу, началась война, которой суждено было забрать миллионы жизней и свести «человеческие ресурсы» почти к нулю всего за несколько лет. Чтобы сражаться с пришельцами, было создано специальное оружие: огромные роботы, названные Джегерами, они управлялись одновременно двумя пилотами, чьи сознания соединены с помощью нейронной связи. Но даже Джегеры оказываются почти бессильны перед лицом безжалостных Кайдзу. На грани поражения у защитников человечества нет выбора, кроме как обратиться к двум весьма сомнительным героям — никому не нужному бывшему пилоту и неопытному стажеру — которые объединились, чтобы повести в бой некогда легендарного, но сейчас устаревшего Джегера. Вместе они оказываются единственной надеждой человечества, последним препятствием перед надвигающимся апокалипсисом.

Формат 3D: BDRemux mkv
Видео: AVC, High@L4.0, 1920х1080, 23,976 кадра/сек, 32,1 Мбит/сек
Аудио: Rus, DTS, 6 каналов, 1509 Кбит/сек, 48,0 КГц
Аудио: Eng, DTS, 6 каналов, 1509 Кбит/сек, 48,0 КГц

Скриншоты




Media Info

Общее
Уникальный идентификатор : 196391500483861869430411881826577350072 (0x93BFA08D973117978946BEF1DEACFDB8)
Полное имя : F:\Steam\Pacific_Rim_BDRemux.mkv
Формат : Matroska
Версия формата : Version 2
Размер файла : 32,9 Гбайт
Продолжительность : 2 ч. 11 м.
Режим общего битрейта : Переменный
Общий поток : 35,8 Мбит/сек
Дата кодирования : UTC 2013-10-10 09:03:50
Программа кодирования : mkvmerge v3.4.0 ('Rapunzel') сборка от May 15 2010 09:38:20
Библиотека кодирования : libebml v0.8.0 + libmatroska v0.9.0
Видео
Идентификатор : 1
Формат : AVC
Формат/Информация : Advanced Video Codec
Профиль формата : Stereo High@L4.1 / High@L4.1
MultiView_Count : 2
Параметр CABAC формата : Да
Параметр ReFrames формата : 2 кадра
Параметр GOP формата : M=1, N=10
Идентификатор кодека : V_MPEG4/ISO/AVC
Продолжительность : 2 ч. 11 м.
Вид битрейта : Переменный
Битрейт : 32,1 Мбит/сек
Ширина : 1920 пикселей
Высота : 1080 пикселей
Соотношение сторон : 16:9
Режим частоты кадров : Постоянный
Частота кадров : 23,976 кадра/сек
Цветовое пространство : YUV
Субдискретизация насыщенности : 4:2:0
Битовая глубина : 8 бит
Тип развёртки : Прогрессивная
Бит/(Пиксели*Кадры) : 0.646
Размер потока : 29,5 Гбайт (90%)
Язык : English
Default : Нет
Forced : Нет
Аудио #1
Идентификатор : 2
Формат : DTS
Формат/Информация : Digital Theater Systems
Режим : 16
Параметр Endianness формата : Big
Идентификатор кодека : A_DTS
Продолжительность : 2 ч. 11 м.
Вид битрейта : Постоянный
Битрейт : 1509 Кбит/сек
Каналы : 6 каналов
Расположение каналов : Front: L C R, Side: L R, LFE
Частота : 48,0 КГц
Битовая глубина : 24 бит
Метод сжатия : С потерями
Размер потока : 1,38 Гбайт (4%)
Язык : Russian
Default : Да
Forced : Нет
Аудио #2
Идентификатор : 3
Формат : DTS
Формат/Информация : Digital Theater Systems
Режим : 16
Параметр Endianness формата : Big
Идентификатор кодека : A_DTS
Продолжительность : 2 ч. 11 м.
Вид битрейта : Постоянный
Битрейт : 1509 Кбит/сек
Каналы : 6 каналов
Расположение каналов : Front: L C R, Side: L R, LFE
Частота : 48,0 КГц
Битовая глубина : 16 бит
Метод сжатия : С потерями
Задержка видео : 11 мс.
Размер потока : 1,38 Гбайт (4%)
Язык : English
Default : Нет
Forced : Нет
Меню
00:00:00.000 : en:Chapter 01
00:09:08.881 : en:Chapter 02
00:18:35.781 : en:Chapter 03
00:23:04.299 : en:Chapter 04
00:33:00.353 : en:Chapter 05
00:42:44.853 : en:Chapter 06
00:50:01.623 : en:Chapter 07
01:01:09.499 : en:Chapter 08
01:14:45.063 : en:Chapter 09
01:22:21.269 : en:Chapter 10
01:32:09.899 : en:Chapter 11
01:41:55.567 : en:Chapter 12
01:51:37.816 : en:Chapter 13
01:59:21.028 : en:Chapter 14
02:02:17.830 : en:Chapter 15
На встроенных ТВ-плейерах показывать НЕ будет!!!
Просмотр возможен Stereoscopic Player-ом начиная с версии 1.9.6

Другие способы просмотра

можно добавить просмотр возможен на медиаплеерах на процессоре Realtek 1186 DD,
выбрать режим 3D Top Bottom
Проверил на встроенном плеере Самсунг UE40D7000L - показывает.Также проверил на системе домашних развлечений5,1CH BLu-ray TM все идет.
Остальные раздачи этого фильма (4)
Благодарности релизеру (10)

Торрент:

Статус:

Размер:

Зарегистрирован   [ 2013-10-10 20:47 ]

проверено

32.88 GB

 
 Мнение о фильме (74)

1, 2, 3, 4  След.






Тут пару пользователей на другом трекере писали по поводу фильма:
...с фильмом проблема, около 11 мин 30 сек вдруг что то не так с 3Д. Меня с подругой одновременно заташнило. Как будто кадры не в правильном порядке попадают в глаза...
Кстати, да: у меня то же самое.
Проанализировал...
Одну ошибку стереографов фильма я заметил ещё при создании анимированных скринов - смещение ракурсов по вертикали от начала фильма до ~20...24 минуты, но она была не особо напрягающая зрение (хотя всё же напрягающая, теоретически).
А вот в промежутке с ~11-ти минут по 13 ... мин - оказалась вообще недопустимая ошибка стереографов - ракурсы по-разному масштабированы:

Анимированные скрины


После этого времени весь фильм идёт отлично выровнен и по вертикали, и по масштабу...
Разумеется, это не в претензию serega768! :)
 

ash61, Жуть, 24+2, 26 минут напряга зрению.
 

Да нет, Dag13, где-то 20-24 минуты. И то несильного напряга (возможно даже и незаметного). А сильного напряга где-то 2,5 минуты. К тому же, этот сильный напряг испытают только особо чувствительные люди... :)
Скажем, на Музее восковых фигур тоже было неправильное вертикальное кадрирование, но я его совершенно не заметил при просмотре фильма полностью (заметил только по скринам анимации). И на Амитивилле-3 тоже было неправильное вертикальное кадрирование (правда я его не смотрел полностью).
 

ash61, Т.е. это проблема BluRay3D или при перекодировании, если при перекодировании лучше тогда BD3d скачать, а то так ждал этот фильм.
 

Т.е. это проблема BluRay3D
Да, при рипмейке "география" пикселей не изменяется. Таков исходник.
 

S@SH@, да, так сделали создатели фильма.
 

Отличный фильм советую всем)
 

Dag13, ash61, а когда он в кинотеатрах шел эти проблемы были или нет?
 

S@SH@, Надо спросить тех, кто смотрел. Хотя скорей всего нет.
 

Я не знаю, была ли упомянутая проблема в кинотеатрах. Но, в отличии от Dag13, почти уверен, что там было то же самое - кто же будет перемонтировать фильм специально для БД...
 

3D просто супер
Я бы даже сказал лучшее что приходилось видеть, 3D Аватара, Гэдсби и Мстителей позади.
 

Фильм просто "какашка". Если б не 3д то был бы полное Г....
 

Классный, красивый фильм, давно таких не было. Смотрели с удовольствием. Что бы фильм понравился нужен большой экран и отличный звук. А не на сотовом его смотреть!
P.S не плохобы без полос рип :)
 

хлопци прывит!скажу одразу фильм бомба!режесер заклав дуже важкий смысл.глыбока постанова,жанр дуже закрученый и непредсказуем!до конця не знав хто же женился на марии та вбыл алихандро!уууу аж мурашки по коже!смотрел аж 4 раза подряд,бо не знав де кнопа стоп-(довбаный самвсуньг).кино якесь размыте нема резкости ще два экрана я смотрел один а второй я тоже смотрел один.прыйшлы сусиды и кажуть шо треба окуляры!я у шоци клава!короче пишов я у оптику кажуть +1 беры!
 

хлопци прывит!скажу одразу фильм бомба!режесер заклав дуже важкий смысл.глыбока постанова,жанр дуже закрученый и непредсказуем!до конця не знав хто же женился на марии та вбыл алихандро!уууу аж мурашки по коже!смотрел аж 4 раза подряд,бо не знав де кнопа стоп-(довбаный самвсуньг).кино якесь размыте нема резкости ще два экрана я смотрел один а второй я тоже смотрел один.прыйшлы сусиды и кажуть шо треба окуляры!я у шоци клава!короче пишов я у оптику кажуть +1 беры!
Дая печаль (((. Автор троль лесной.
 

На вкус и цвет фломастеры разные, так что качать в любом случае!!! По многочисленным отзывам думал что фильм параша смотреть только ради 3Д...а вот сюжет есть и значительно интереснее чем в тех же трансформерах или годзиле, 3Д не могу сказать что плохое, но ожидал значительно большего...звук однозначно не катит (нужен дубляж).
 

Смотреть можно
 

спасибо
 

О! Вот -наконец то!
Терпеливо ждал - не смотрел - спасибо!!!!!!!!!!!!
Хороший звук - это практически полдела на отлично!
 

Отличный фильм, смесь трансформеров с годзиллами. Смотреть только на большом экране, на полную громкость и в 3D.
 

Страница 1 из 4

1, 2, 3, 4  След.