Торренты   
 
 

 

Космический мусор в 3Д / IMAX - Space Junk 3D (Мелисса Р. Баттс / Melissa R. Butts) [2012, документальный, короткометражка, BDrip, 1080p] Anamorph OverUnder / Вертикальная анаморфная стереопара

Рейтинг 3D:
26 голосов
7.3
Рейтинг фильма:
26 голосов
5.8
 
Вы должны быть авторизированы,
чтобы ставить оценки


Космический мусор в 3Д
IMAX - Space Junk 3D

«Берегите космос»
Год выпуска: 2012
Страна: США
Жанр: документальный, короткометражка
Продолжительность: 00:37:25
Перевод: Отсутствует
Русские субтитры: нет
Режиссер: Мелисса Р.Баттс / Melissa R. Butts
В ролях:
Эм Кларк,Zach Clark,Келби Кросс,Eduardo Gonzalez,Howard Henley,Кимберли Херрманн,
Don Kessler,Никола Ламбо,John Sullivan,Том Уилкинсон.
Описание:
Спустя 50 лет после запуска наши мечты в пространство, мы остались с тревожным наследие: растущий кольцо находящихся на орбите космического мусора, которая угрожает безопасности земной орбиты. КОСМИЧЕСКОГО мусора является визуально взрывных путешествие открытий, который весит решений, направленных на восстановление орбиты нашей планеты.
Опыт умопомрачительной столкновений, природных и антропогенных. Парить для потрясающей глубины метеоритный кратер беспрецедентной представление нашего все более переполненном орбит – 22000 миль над землей. Присоединяйтесь к нам, как очередь эксперт Дон Кесслер, «Отец космического мусора,» ведет нас через проблемы, с которыми мы сталкиваемся в деле защиты их, ковка в новую эпоху космических открытий.--Премьера: 13 января 2012
Бюджет: $
Релиз на Blu-Ray (DVD) : 14 ноября 2013

.
Проверено на встроенном плейере ТВ LG LW 650S
--Качество: BDrip
Контейнер: MKV
Формат 3D: Anamorph OverUnder / Вертикальная анаморфная стереопара
Порядок ракурсов: левый ракурс первый
Видео кодек: x264
Аудио кодек: AC3
Видео: AVC / 23,976 fps / 1920х1080p / 8464 Kbps
Аудио: Английский / AC3 / 48 KHz / 5.1 ch / 640 Kbps (Original - BD3D)

MediaInfo

Общее
Уникальный идентификатор : 174784631504310986219561665219423329554 (0x837E4BAA090F2E3AB87AFEE3AB375D12)
Полное имя : E:\IMAX - Space Junk (2012)BD3DRip.Half.OU.x264.1080p.AC3.3D-RuGroup([email protected]).mkv
Формат : Matroska
Версия формата : Version 4 / Version 2
Размер файла : 2,43 Гбайт
Продолжительность : 37 м.
Общий поток : 9289 Кбит/сек
Название фильма : IMAX - Space Junk (2012) 3D-RuGroup ([email protected])
Дата кодирования : UTC 2013-10-10 19:49:39
Программа кодирования : mkvmerge v6.4.1 ('Omega Point') built on Sep 16 2013 22:05:10
Библиотека кодирования : libebml v1.3.0 + libmatroska v1.4.1
Видео
Идентификатор : 1
Формат : AVC
Формат/Информация : Advanced Video Codec
Профиль формата : [email protected]
Параметр CABAC формата : Да
Параметр ReFrames формата : 4 кадра
Идентификатор кодека : V_MPEG4/ISO/AVC
Продолжительность : 37 м.
Битрейт : 8464 Кбит/сек
Ширина : 1920 пикселей
Высота : 1080 пикселей
Соотношение сторон : 16:9
Режим частоты кадров : Постоянный
Частота кадров : 23,976 кадра/сек
Цветовое пространство : YUV
Субдискретизация насыщенности : 4:2:0
Битовая глубина : 8 бит
Тип развёртки : Прогрессивная
Бит/(Пиксели*Кадры) : 0.170
Размер потока : 2,21 Гбайт (91%)
Заголовок : BDrip (by [email protected])
Библиотека кодирования : x264 core 116 r2074 2641b9e
Настройки программы : cabac=1 / ref=4 / deblock=1:-3:-3 / analyse=0x3:0x113 / me=umh / subme=10 / psy=1 / psy_rd=1.00:0.15 / mixed_ref=1 / me_range=32 / chroma_me=1 / trellis=2 / 8x8dct=1 / cqm=0 / deadzone=21,11 / fast_pskip=1 / chroma_qp_offset=-3 / threads=12 / sliced_threads=0 / nr=0 / decimate=1 / interlaced=0 / bluray_compat=0 / constrained_intra=0 / bframes=6 / b_pyramid=2 / b_adapt=2 / b_bias=0 / direct=3 / weightb=1 / open_gop=0 / weightp=2 / keyint=250 / keyint_min=23 / scenecut=40 / intra_refresh=0 / rc_lookahead=60 / rc=crf / mbtree=1 / crf=17.0 / qcomp=0.60 / qpmin=10 / qpmax=51 / qpstep=4 / vbv_maxrate=40000 / vbv_bufsize=30000 / crf_max=0.0 / nal_hrd=none / frame-packing=4 / ip_ratio=1.40 / aq=1:0.70
Язык : English
Default : Да
Forced : Нет
Аудио
Идентификатор : 2
Формат : AC-3
Формат/Информация : Audio Coding 3
Расширение режима : CM (complete main)
Параметр Endianness формата : Big
Идентификатор кодека : A_AC3
Продолжительность : 37 м.
Вид битрейта : Постоянный
Битрейт : 640 Кбит/сек
Каналы : 6 каналов
Расположение каналов : Front: L C R, Side: L R, LFE
Частота : 48,0 КГц
Битовая глубина : 16 бит
Метод сжатия : С потерями
Размер потока : 171 Мбайт (7%)
Заголовок : AC3 / 5.1 ch / 640 kbps / оригинал (BD CEE)
Язык : English
Default : Да
Forced : Да
Меню
00:00:00.000 : en:00:00:00.000
00:02:23.894 : en:00:02:23.894
00:05:52.894 : en:00:05:52.894
00:07:34.913 : en:00:07:34.913
00:08:48.486 : en:00:08:48.486
00:10:49.649 : en:00:10:49.649
00:13:31.894 : en:00:13:31.894
00:15:35.643 : en:00:15:35.643
00:17:08.861 : en:00:17:08.861
00:18:24.812 : en:00:18:24.812
00:19:58.197 : en:00:19:58.197
00:22:06.158 : en:00:22:06.158
00:25:26.191 : en:00:25:26.191
00:28:30.292 : en:00:28:30.292
00:31:26.134 : en:00:31:26.134

Скриншоты

Благодарности релизеру (31)

Торрент:

Статус:

Размер:

Зарегистрирован   [ 2013-10-11 02:32 ]

поглощено

2.43 GB

 
 Комментарии о раздаче (13)





Спасибо большое!
 

Спасибо, конечно, но неужели нельзя было хоть немного причесать гугло-перевод описания?
 

Спасибо!!!!!!!!!!!
 

Неужели так сложно подправить немного перевод описания? так сказать адаптровать немного под нормальный русский язык? тем более, что и так понятно, о чем примельно этот фильм.Перевели с помощью онлайн переводчика, понятно, что криво переводит, ну и исправь немного, немного своими словами, а то пока прочитал, забыл о чем читал :) Удачи и Спасибо ОГРОМНОЕ.
 

к чему переводить описание фильм-то не переведён. к тому же пиндостанские меры сколько-то миль. не люблю смотреть с калькулятором в руках.
 

странно, не чего не закачеваеться,торент работает, а не кто не раздаёт.....
 

НатальяИв,
как ответили мне, здесь при скачевании 50гигов скорость падает и поднимется только после отдачи 50 гигов так-что ищите другой торент где нет таких огранечений, лично я сейчас качаю всё с друго-го торента.
 

Качество изображения на высоком уровне!
 

с переводом было бы лучше
 

А когда будет перевод?
 

Есть уже русская дорога в сети к нему. Прикрутите плиз.
 

Русифицированная раздача тут - /article/4997/
 

ash61, Тогда поглощено в пользу /article/4997/