Торренты   
 
 

 

Тиxоокеанский рубеж в 3Д / Pаcific Rim 3D (Гильермо Дель Торо / Guillermo del Toro) [2013, Фантастика, фэнтези, боевик, приключения, BDrip, 1080p]Full OverUnder / Вертикальная стереопара

Рейтинг 3D:
204 голосов
8.1
Рейтинг фильма:
201 голосов
7.3
 
Вы должны быть авторизированы,
чтобы ставить оценки


Тиxоокеанский рубеж / Pаcific Rim
Год выпуска: 2013
Страна: США
Студия: Warner Brosers, Legendary Pictures
Жанр: Фантастика, фэнтези, боевик, приключения
Продолжительность: 2:11:16
Перевод:Профессиональный дублированный(Лицензия)
Русские субтитры: нет
Режиссер на русском: Гильермо Дель Торо
Режиссер на английском: Guillermo del Toro
В ролях: Чарли Ханнэм, Идрис Эльба, Ринко Кикучи, Чарли Дэй, Роберт Казински, Макс Мартини, Рон Перлман, Клифтон Коллинз мл., Диего Клаттенхофф, Берн Горман
Описание: Когда из морских глубин поднялись легионы чудовищ, известных как Кайдзу, началась война, которой суждено было забрать миллионы жизней и свести «человеческие ресурсы» почти к нулю всего за несколько лет. Чтобы сражаться с пришельцами, было создано специальное оружие: огромные роботы, названные Джегерами, они управлялись одновременно двумя пилотами, чьи сознания соединены с помощью нейронной связи. Но даже Джегеры оказываются почти бессильны перед лицом безжалостных Кайдзу. На грани поражения у защитников человечества нет выбора, кроме как обратиться к двум весьма сомнительным героям — никому не нужному бывшему пилоту и неопытному стажеру — которые объединились, чтобы повести в бой некогда легендарного, но сейчас устаревшего Джегера. Вместе они оказываются единственной надеждой человечества, последним препятствием перед надвигающимся апокалипсисом.
Сэмпл: http://www.sendspace.com/file/es69di
Качество: BDrip
Контейнер: MKV
Формат 3D: OverUnder / Вертикальная стереопара
Порядок ракурсов: левый ракурс первый
Видео кодек: x264
Аудио кодек: AC3
Видео: AVC / High@L5.0 / 23,976 fps / 1920х2160 / 28,1 Мбит/сек
Аудио: Русский / AC3 / 48 KHz / 5.1 ch / 640 Кбит/сек
Аудио 2: Английский / AC3 / 48 KHz / 5.1 ch / 640 Кбит/сек
Релиз группы: ВНИМАНИЕ ! На встроенных ТВ-плеерах работать не будет!!!
Железные плееры на которых воспроизводятся полные стереопары:Popcorn C-200 , Dune HD Smart D1 , Dune HD DUO , Dune HD Smart H1 , Dune HD Smart B1 , Dune HD Max , Dune HD TV-303D , Dune HD Base 3D , Dune HD TV-301

09.11.2013 - Релиз обновлён. Заменена звуковая дорожка на лицензию .
Желающие, скачайте заново торрент-файл.

MediaInfo

Общее
Уникальный идентификатор : 195629754275704222653286895633765283359 (0x932CEB90BCCF4DC3BED2DF829304B61F)
Полное имя : E:\закачки\Pacific Rim.Rip by SeRoGa00.mkv
Формат : Matroska
Версия формата : Version 2
Размер файла : 27,5 Гбайт
Продолжительность : 2 ч. 11 м.
Общий поток : 30,0 Мбит/сек
Дата кодирования : UTC 2013-11-09 08:53:53
Программа кодирования : mkvmerge v3.4.0 ('Rapunzel') сборка от May 15 2010 09:38:20
Библиотека кодирования : libebml v0.8.0 + libmatroska v0.9.0
Видео
Идентификатор : 1
Формат : AVC
Формат/Информация : Advanced Video Codec
Профиль формата : High@L5.0
Параметр CABAC формата : Да
Параметр ReFrames формата : 4 кадра
Идентификатор кодека : V_MPEG4/ISO/AVC
Продолжительность : 2 ч. 11 м.
Битрейт : 28,1 Мбит/сек
Ширина : 1920 пикселей
Высота : 2160 пикселей
Соотношение сторон : 0,889
Частота кадров : 23,976 кадра/сек
Цветовое пространство : YUV
Субдискретизация насыщенности : 4:2:0
Битовая глубина : 8 бит
Тип развёртки : Прогрессивная
Бит/(Пиксели*Кадры) : 0.283
Размер потока : 25,8 Гбайт (94%)
Заголовок : Rip by SeRoGa00
Библиотека кодирования : x264 core 138 r2356 a1d3d17
Настройки программы : cabac=1 / ref=4 / deblock=1:-3:-3 / analyse=0x3:0x113 / me=umh / subme=9 / psy=1 / psy_rd=1.00:0.15 / mixed_ref=1 / me_range=24 / chroma_me=1 / trellis=2 / 8x8dct=1 / cqm=0 / deadzone=21,11 / fast_pskip=1 / chroma_qp_offset=-3 / threads=9 / lookahead_threads=1 / sliced_threads=0 / nr=0 / decimate=1 / interlaced=0 / bluray_compat=0 / constrained_intra=0 / bframes=8 / b_pyramid=2 / b_adapt=2 / b_bias=0 / direct=3 / weightb=1 / open_gop=0 / weightp=2 / keyint=250 / keyint_min=23 / scenecut=40 / intra_refresh=0 / rc_lookahead=60 / rc=crf / mbtree=1 / crf=18.0 / qcomp=0.60 / qpmin=10 / qpmax=69 / qpstep=4 / vbv_maxrate=40000 / vbv_bufsize=40000 / crf_max=0.0 / nal_hrd=none / ip_ratio=1.40 / aq=1:1.00
Язык : English
Аудио #1
Идентификатор : 2
Формат : AC-3
Формат/Информация : Audio Coding 3
Расширение режима : CM (complete main)
Идентификатор кодека : A_AC3
Продолжительность : 2 ч. 11 м.
Вид битрейта : Постоянный
Битрейт : 640 Кбит/сек
Каналы : 6 каналов
Расположение каналов : Front: L C R, Side: L R, LFE
Частота : 48,0 КГц
Битовая глубина : 16 бит
Метод сжатия : С потерями
Размер потока : 601 Мбайт (2%)
Язык : Russian
Аудио #2
Идентификатор : 3
Формат : AC-3
Формат/Информация : Audio Coding 3
Расширение режима : CM (complete main)
Идентификатор кодека : A_AC3
Продолжительность : 2 ч. 11 м.
Вид битрейта : Постоянный
Битрейт : 640 Кбит/сек
Каналы : 6 каналов
Расположение каналов : Front: L C R, Side: L R, LFE
Частота : 48,0 КГц
Битовая глубина : 16 бит
Метод сжатия : С потерями
Размер потока : 601 Мбайт (2%)
Язык : English

Скриншоты


Остальные раздачи этого фильма (4)
Благодарности релизеру (13)

Торрент:

Статус:

Размер:

Зарегистрирован   [ 2013-11-09 13:38 ]

* не проверено

27.53 GB

 
 Мнение о фильме (74)

1, 2, 3, 4  След.






Тут пару пользователей на другом трекере писали по поводу фильма:
...с фильмом проблема, около 11 мин 30 сек вдруг что то не так с 3Д. Меня с подругой одновременно заташнило. Как будто кадры не в правильном порядке попадают в глаза...
Кстати, да: у меня то же самое.
Проанализировал...
Одну ошибку стереографов фильма я заметил ещё при создании анимированных скринов - смещение ракурсов по вертикали от начала фильма до ~20...24 минуты, но она была не особо напрягающая зрение (хотя всё же напрягающая, теоретически).
А вот в промежутке с ~11-ти минут по 13 ... мин - оказалась вообще недопустимая ошибка стереографов - ракурсы по-разному масштабированы:

Анимированные скрины


После этого времени весь фильм идёт отлично выровнен и по вертикали, и по масштабу...
Разумеется, это не в претензию serega768! :)
 

ash61, Жуть, 24+2, 26 минут напряга зрению.
 

Да нет, Dag13, где-то 20-24 минуты. И то несильного напряга (возможно даже и незаметного). А сильного напряга где-то 2,5 минуты. К тому же, этот сильный напряг испытают только особо чувствительные люди... :)
Скажем, на Музее восковых фигур тоже было неправильное вертикальное кадрирование, но я его совершенно не заметил при просмотре фильма полностью (заметил только по скринам анимации). И на Амитивилле-3 тоже было неправильное вертикальное кадрирование (правда я его не смотрел полностью).
 

ash61, Т.е. это проблема BluRay3D или при перекодировании, если при перекодировании лучше тогда BD3d скачать, а то так ждал этот фильм.
 

Т.е. это проблема BluRay3D
Да, при рипмейке "география" пикселей не изменяется. Таков исходник.
 

S@SH@, да, так сделали создатели фильма.
 

Отличный фильм советую всем)
 

Dag13, ash61, а когда он в кинотеатрах шел эти проблемы были или нет?
 

S@SH@, Надо спросить тех, кто смотрел. Хотя скорей всего нет.
 

Я не знаю, была ли упомянутая проблема в кинотеатрах. Но, в отличии от Dag13, почти уверен, что там было то же самое - кто же будет перемонтировать фильм специально для БД...
 

3D просто супер
Я бы даже сказал лучшее что приходилось видеть, 3D Аватара, Гэдсби и Мстителей позади.
 

Фильм просто "какашка". Если б не 3д то был бы полное Г....
 

Классный, красивый фильм, давно таких не было. Смотрели с удовольствием. Что бы фильм понравился нужен большой экран и отличный звук. А не на сотовом его смотреть!
P.S не плохобы без полос рип :)
 

хлопци прывит!скажу одразу фильм бомба!режесер заклав дуже важкий смысл.глыбока постанова,жанр дуже закрученый и непредсказуем!до конця не знав хто же женился на марии та вбыл алихандро!уууу аж мурашки по коже!смотрел аж 4 раза подряд,бо не знав де кнопа стоп-(довбаный самвсуньг).кино якесь размыте нема резкости ще два экрана я смотрел один а второй я тоже смотрел один.прыйшлы сусиды и кажуть шо треба окуляры!я у шоци клава!короче пишов я у оптику кажуть +1 беры!
 

хлопци прывит!скажу одразу фильм бомба!режесер заклав дуже важкий смысл.глыбока постанова,жанр дуже закрученый и непредсказуем!до конця не знав хто же женился на марии та вбыл алихандро!уууу аж мурашки по коже!смотрел аж 4 раза подряд,бо не знав де кнопа стоп-(довбаный самвсуньг).кино якесь размыте нема резкости ще два экрана я смотрел один а второй я тоже смотрел один.прыйшлы сусиды и кажуть шо треба окуляры!я у шоци клава!короче пишов я у оптику кажуть +1 беры!
Дая печаль (((. Автор троль лесной.
 

На вкус и цвет фломастеры разные, так что качать в любом случае!!! По многочисленным отзывам думал что фильм параша смотреть только ради 3Д...а вот сюжет есть и значительно интереснее чем в тех же трансформерах или годзиле, 3Д не могу сказать что плохое, но ожидал значительно большего...звук однозначно не катит (нужен дубляж).
 

Смотреть можно
 

спасибо
 

О! Вот -наконец то!
Терпеливо ждал - не смотрел - спасибо!!!!!!!!!!!!
Хороший звук - это практически полдела на отлично!
 

Отличный фильм, смесь трансформеров с годзиллами. Смотреть только на большом экране, на полную громкость и в 3D.
 

Страница 1 из 4

1, 2, 3, 4  След.