Торренты   
 
 

 

Университет монстров / Monsters University (Дэн Скэнлон) [2013 г., BDRip, Full OverUnder]

Рейтинг 3D:
112 голосов
7.6
Рейтинг фильма:
110 голосов
7.4
 
Вы должны быть авторизированы,
чтобы ставить оценки


Университет монстров / Monsters University
Год выпуска: 2013
Страна: США
Жанр: мультфильм, фэнтези, комедия, приключения, семейный
Продолжительность: 01:43:48
Перевод: Профессиональный (многоголосый, закадровый) Baibako
Режиссер: Дэн Скэнлон
В ролях: Джон Гудман, Билли Кристал, Стив Бушеми, Хелен Миррен, Питер Сон, Джоэль Мюррей, Шон Хейс, Дэйв Фоли, Чарли Дэй, Альфред Молина
Описание: Майк и Салли — самые опытные пугатели в Монстрополисе, но так было далеко не всегда. Когда они встретились впервые, эти совершенно непохожие друг на друга монстры терпеть друг друга не могли. «Университет Монстров» — история о том, как наши старые знакомые прошли путь от взаимной неприязни к крепкой дружбе.
Релиз группы:
Формат 3D: OverUnder BDRip, Full
Видео: AVC, High@L4.0, 1920х2160, 23,976 кадра/сек, 11,7 Мбит/сек
Аудио: Rus, DTS, 6 каналов, 1509 Кбит/сек, 48,0 КГц
Аудио: Eng, AC-3, 6 каналов, 640 Кбит/сек, 48,0 КГц

Скриншоты




Media Info

Общее
Уникальный идентификатор : 201258041896612978184086807343258387438 (0x9768E391D12F3B218D4C11478DEFC3EE)
Полное имя : E:\STEREO\Monsters University_1080p_Rip by Dag13.mkv
Формат : Matroska
Версия формата : Version 2
Размер файла : 10,3 Гбайт
Продолжительность : 1 ч. 44 м.
Общий поток : 14,2 Мбит/сек
Дата кодирования : UTC 2013-10-16 10:04:06
Программа кодирования : mkvmerge v3.4.0 ('Rapunzel') сборка от May 15 2010 09:38:20
Библиотека кодирования : libebml v0.8.0 + libmatroska v0.9.0
Видео
Идентификатор : 1
Формат : AVC
Формат/Информация : Advanced Video Codec
Профиль формата : High@L5.0
Параметр CABAC формата : Да
Параметр ReFrames формата : 4 кадра
Идентификатор кодека : V_MPEG4/ISO/AVC
Продолжительность : 1 ч. 44 м.
Битрейт : 11,7 Мбит/сек
Ширина : 1920 пикселей
Высота : 2160 пикселей
Соотношение сторон : 0,889
Режим частоты кадров : Постоянный
Частота кадров : 23,976 кадра/сек
Цветовое пространство : YUV
Субдискретизация насыщенности : 4:2:0
Битовая глубина : 8 бит
Тип развёртки : Прогрессивная
Бит/(Пиксели*Кадры) : 0.118
Размер потока : 8,56 Гбайт (83%)
Заголовок : Rip by Dag13
Библиотека кодирования : x264 core 116 r2074 2641b9e
Настройки программы : cabac=1 / ref=4 / deblock=1:-3:-3 / analyse=0x3:0x113 / me=umh / subme=9 / psy=1 / psy_rd=1.00:0.00 / mixed_ref=1 / me_range=16 / chroma_me=1 / trellis=2 / 8x8dct=1 / cqm=0 / deadzone=21,11 / fast_pskip=1 / chroma_qp_offset=-2 / threads=9 / sliced_threads=0 / nr=0 / decimate=1 / interlaced=0 / bluray_compat=0 / constrained_intra=0 / bframes=6 / b_pyramid=2 / b_adapt=2 / b_bias=0 / direct=3 / weightb=1 / open_gop=0 / weightp=2 / keyint=250 / keyint_min=23 / scenecut=40 / intra_refresh=0 / rc_lookahead=60 / rc=crf / mbtree=1 / crf=18.0 / qcomp=0.60 / qpmin=1 / qpmax=69 / qpstep=4 / ip_ratio=1.40 / aq=1:1.00
Язык : English
Default : Нет
Forced : Нет
Аудио #1
Идентификатор : 2
Формат : DTS
Формат/Информация : Digital Theater Systems
Режим : 16
Параметр Endianness формата : Big
Идентификатор кодека : A_DTS
Продолжительность : 1 ч. 44 м.
Вид битрейта : Постоянный
Битрейт : 1509 Кбит/сек
Каналы : 6 каналов
Расположение каналов : Front: L C R, Side: L R, LFE
Частота : 48,0 КГц
Битовая глубина : 24 бит
Метод сжатия : С потерями
Размер потока : 1,10 Гбайт (11%)
Заголовок : Baibako
Язык : Russian
Default : Да
Forced : Нет
Аудио #2
Идентификатор : 3
Формат : AC-3
Формат/Информация : Audio Coding 3
Расширение режима : CM (complete main)
Параметр Endianness формата : Big
Идентификатор кодека : A_AC3
Продолжительность : 1 ч. 44 м.
Вид битрейта : Постоянный
Битрейт : 640 Кбит/сек
Каналы : 6 каналов
Расположение каналов : Front: L C R, Side: L R, LFE
Частота : 48,0 КГц
Битовая глубина : 16 бит
Метод сжатия : С потерями
Размер потока : 477 Мбайт (5%)
Язык : English
Default : Нет
Forced : Нет
На встроенных ТВ-плейерах показывать НЕ будет!!!
Остальные раздачи этого фильма (2)
Благодарности релизеру (15)

Торрент:

Статус:

Размер:

Зарегистрирован   [ 2013-10-16 17:43 ]

проверено

10.33 GB

 
 Мнение о фильме (25)

1, 2  След.






Хороший красивый мульт!С сыном смотрел,понравилось!
 

Дети как то без особого восторга смотрели, зажрались, наверное.
 

Хороший мультик
 

Внучке и мне мультик понравился.
 
Виталий Цыганов Профиль 27-Окт-2013 11:06

И 3D и сюжет понравились. Смотрели всей семьёй!
 

отличный, качество вполне нормальное, сюжет только чуть слабее чем у предыдущего.
 

Неплохо, но не более. Середняк.
 

Мульт классный, только один вопрос, почему некоторых моментов нет в фильме которые были в трейлере. Как отключить титры ???
 

благодарю за раздачу,мульт класс !
 

На всех релизах нет перевода 54-55 мин???
 

Дочька в восторге, спасибо.
 
Вячеслав Старчевский Профиль 29-Окт-2013 15:27

Спасибо! хороший мультик.
 

Большое спасибо за мультфильм!Посмотрел на одном дыхании...
 

закадровый перевод заменен?
 

Ребенку и мне мульт очень понравился, большое спасибо!
 

На телевизоре не пошел.lg 3d.на компе смонитором 3 д посмотрел-хорошо+
 

мультфильм неплох,но первая часть круче.
 

Спасибо!Дочька в восторге!
 

Любопытно было посмотреть "начало"
 

ВЕСЁЛЫЙ И ПРЕКРАСНЫЙ МУЛЬТ!!!!!!!
 

Страница 1 из 2

1, 2  След.