Торренты   
 
 

 

Университет монстров / Monsters University (Дэн Скэнлон) [2013 г., Anamorph OverUnder]

Рейтинг 3D:
112 голосов
7.6
Рейтинг фильма:
110 голосов
7.4
 
Вы должны быть авторизированы,
чтобы ставить оценки


© Закрыто правообладателем

Университет монстров / Monsters University
Год выпуска: 2013
Страна: США (Pixar Animation Studios, Walt Disney Pictures)
Жанр: мультфильм, фэнтези, комедия, приключения, семейный
Продолжительность: 01:43:47
Перевод:
Профессиональный (полное дублирование)
Профессиональный (многоголосый, закадровый) Baibako
Режиссер: Дэн Скэнлон
В ролях: Джон Гудман, Билли Кристал, Стив Бушеми, Хелен Миррен, Питер Сон, Джоэль Мюррей, Шон Хейс, Дэйв Фоли, Чарли Дэй, Альфред Молина
Описание: Майк и Салли — самые опытные пугатели в Монстрополисе, но так было далеко не всегда. Когда они встретились впервые, эти монстры терпеть друг друга не могли. «Университет Монстров» — история о том, как наши старые знакомые прошли путь от взаимной неприязни к крепкой дружбе.
Качество: BDrip
Контейнер: MKV
Формат 3D: Anamorph OverUnder / Вертикальная анаморфная стереопара
Видео кодек: x264
Аудио кодек: AC-3
Видео: AVC, High@L4.1, 1920х1080, 23,976 кадра/сек, 7808 Кбит/сек
Аудио:
#1 - Русский / AC3 / 48 KHz / 5.1 ch / 640 Кбит/сек (DUB)
#2 - Русский / AC3 / 48 KHz / 5.1 ch / 640 Кбит/сек (MVO - Baibako)
#3 - Английский / AC3 / 48 KHz / 5.1 ch / 640 Кбит/сек (Original)
Субтитры:
#1 - Русские Форсированные (включены по умолчанию) (три надписи)
#2 - Русские Полные
#3 - English Full
#4 - English SDH
#5 - English Coments
#6 - English Coments SDH

Скриншоты

Media Info

Общее
Уникальный идентификатор : 237211684191841521858906092352359551574 (0xB2754EFEBAAED255A2E4F30AB5DED256)
Полное имя : H:\Source\MonstersUniversity.3D.2013.BD3DRip.Half.OU.x264.AC3.3D-RuGroup.mkv
Формат : Matroska
Версия формата : Version 4 / Version 2
Размер файла : 7,22 Гбайт
Продолжительность : 1 ч. 44 м.
Общий поток : 9911 Кбит/сек
Название фильма : Monsters University 3D (2013) release 3D-RuGroup
Дата кодирования : UTC 2013-11-02 06:58:50
Программа кодирования : mkvmerge v6.3.0 ('You can't stop me!') built on Jul 19 2013 16:27:38
Библиотека кодирования : libebml v1.3.0 + libmatroska v1.4.1
Видео
Идентификатор : 1
Формат : AVC
Формат/Информация : Advanced Video Codec
Профиль формата : High@L4.1
Параметр CABAC формата : Да
Параметр ReFrames формата : 4 кадра
Идентификатор кодека : V_MPEG4/ISO/AVC
Продолжительность : 1 ч. 44 м.
Битрейт : 7793 Кбит/сек
Ширина : 1920 пикселей
Высота : 1080 пикселей
Соотношение сторон : 16:9
Режим частоты кадров : Постоянный
Частота кадров : 23,976 кадра/сек
Цветовое пространство : YUV
Субдискретизация насыщенности : 4:2:0
Битовая глубина : 8 бит
Тип развёртки : Прогрессивная
Бит/(Пиксели*Кадры) : 0.157
Размер потока : 5,68 Гбайт (79%)
Библиотека кодирования : x264 core 130 r2273 b3065e6
Настройки программы : cabac=1 / ref=4 / deblock=1:-3:-3 / analyse=0x3:0x133 / me=umh / subme=10 / psy=1 / psy_rd=1.00:0.05 / mixed_ref=1 / me_range=32 / chroma_me=1 / trellis=2 / 8x8dct=1 / cqm=0 / deadzone=21,11 / fast_pskip=0 / chroma_qp_offset=-3 / threads=12 / lookahead_threads=2 / sliced_threads=0 / nr=0 / decimate=1 / interlaced=0 / bluray_compat=0 / constrained_intra=0 / bframes=8 / b_pyramid=2 / b_adapt=2 / b_bias=0 / direct=3 / weightb=1 / open_gop=0 / weightp=2 / keyint=250 / keyint_min=23 / scenecut=40 / intra_refresh=0 / rc_lookahead=60 / rc=crf / mbtree=1 / crf=17.0 / qcomp=0.60 / qpmin=0 / qpmax=69 / qpstep=4 / vbv_maxrate=50000 / vbv_bufsize=62500 / crf_max=0.0 / nal_hrd=none / ip_ratio=1.40 / aq=1:0.90
Default : Да
Forced : Нет
Аудио #1
Идентификатор : 2
Формат : AC-3
Формат/Информация : Audio Coding 3
Расширение режима : CM (complete main)
Параметр Endianness формата : Big
Идентификатор кодека : A_AC3
Продолжительность : 1 ч. 44 м.
Вид битрейта : Постоянный
Битрейт : 640 Кбит/сек
Каналы : 6 каналов
Расположение каналов : Front: L C R, Side: L R, LFE
Частота : 48,0 КГц
Битовая глубина : 16 бит
Метод сжатия : С потерями
Размер потока : 477 Мбайт (6%)
Заголовок : Дубляж - BD3D EUR
Язык : Russian
Default : Да
Forced : Нет
Аудио #2
Идентификатор : 3
Формат : AC-3
Формат/Информация : Audio Coding 3
Расширение режима : CM (complete main)
Параметр Endianness формата : Big
Идентификатор кодека : A_AC3
Продолжительность : 1 ч. 44 м.
Вид битрейта : Постоянный
Битрейт : 640 Кбит/сек
Каналы : 6 каналов
Расположение каналов : Front: L C R, Side: L R, LFE
Частота : 48,0 КГц
Битовая глубина : 16 бит
Метод сжатия : С потерями
Размер потока : 477 Мбайт (6%)
Заголовок : MVO | DD 5.1 @ 640 kbps - Baibako
Язык : Russian
Default : Нет
Forced : Нет
Аудио #3
Идентификатор : 4
Формат : AC-3
Формат/Информация : Audio Coding 3
Расширение режима : CM (complete main)
Параметр Endianness формата : Big
Идентификатор кодека : A_AC3
Продолжительность : 1 ч. 44 м.
Вид битрейта : Постоянный
Битрейт : 640 Кбит/сек
Каналы : 6 каналов
Расположение каналов : Front: L C R, Side: L R, LFE
Частота : 48,0 КГц
Битовая глубина : 16 бит
Метод сжатия : С потерями
Размер потока : 477 Мбайт (6%)
Язык : English
Default : Нет
Forced : Нет
Текст #1
Идентификатор : 5
Формат : UTF-8
Идентификатор кодека : S_TEXT/UTF8
Идентификатор кодека/Информация : UTF-8 Plain Text
Заголовок : Форсированные
Язык : Russian
Default : Да
Forced : Нет
Текст #2
Идентификатор : 6
Формат : UTF-8
Идентификатор кодека : S_TEXT/UTF8
Идентификатор кодека/Информация : UTF-8 Plain Text
Заголовок : Full
Язык : Russian
Default : Нет
Forced : Нет
Текст #3
Идентификатор : 7
Формат : UTF-8
Идентификатор кодека : S_TEXT/UTF8
Идентификатор кодека/Информация : UTF-8 Plain Text
Заголовок : Full
Язык : English
Default : Нет
Forced : Нет
Текст #4
Идентификатор : 8
Формат : UTF-8
Идентификатор кодека : S_TEXT/UTF8
Идентификатор кодека/Информация : UTF-8 Plain Text
Заголовок : SDH
Язык : English
Default : Нет
Forced : Нет
Текст #5
Идентификатор : 9
Формат : UTF-8
Идентификатор кодека : S_TEXT/UTF8
Идентификатор кодека/Информация : UTF-8 Plain Text
Заголовок : Coments
Язык : English
Default : Нет
Forced : Нет
Текст #6
Идентификатор : 10
Формат : UTF-8
Идентификатор кодека : S_TEXT/UTF8
Идентификатор кодека/Информация : UTF-8 Plain Text
Заголовок : Coments SDH
Язык : English
Default : Нет
Forced : Нет
Меню
00:00:00.000 : en:00:00:00.000
00:06:26.720 : en:00:06:26.720
00:07:06.885 : en:00:07:06.885
00:10:54.112 : en:00:10:54.112
00:12:19.947 : en:00:12:19.947
00:16:09.969 : en:00:16:09.969
00:18:15.636 : en:00:18:15.636
00:19:37.593 : en:00:19:37.593
00:21:06.849 : en:00:21:06.849
00:23:43.630 : en:00:23:43.630
00:29:22.719 : en:00:29:22.719
00:30:39.462 : en:00:30:39.462
00:33:38.099 : en:00:33:38.099
00:36:30.980 : en:00:36:30.980
00:38:19.422 : en:00:38:19.422
00:39:22.568 : en:00:39:22.568
00:45:13.335 : en:00:45:13.335
00:47:14.831 : en:00:47:14.831
00:51:08.148 : en:00:51:08.148
00:55:21.192 : en:00:55:21.192
00:57:30.321 : en:00:57:30.321
01:01:42.239 : en:01:01:42.239
01:04:37.289 : en:01:04:37.289
01:07:33.006 : en:01:07:33.006
01:14:11.321 : en:01:14:11.321
01:18:07.849 : en:01:18:07.849
01:19:25.718 : en:01:19:25.718
01:23:53.402 : en:01:23:53.402
01:24:38.656 : en:01:24:38.656
01:28:00.232 : en:01:28:00.232
01:32:51.356 : en:01:32:51.356
01:34:24.032 : en:01:34:24.032
--Релиз группы:

Проверено на встроенном плейере ТВ LG 42LW4500
--02.11.2013 - Релиз обновлён - добавлена русская дублированная дорожка и пакет субтитров.
Желающие, скачайте заново торрент-файл.
Остальные раздачи этого фильма (2)
Благодарности релизеру (79)

Торрент:

Статус:

Размер:

Зарегистрирован   [ 2013-11-02 16:53 ]

© закрыто правообладателем

7.22 GB

 
 Мнение о фильме (25)

Пред.  1, 2






Хороший мультфильм и 3д. Местами юмор неплох. Маст хев
 

Огромное спасибо автору за релиз, но мульт в целом гораздо слабее первой части.
 

Так себе - на один раз
 

Спасибо! БУдем смотреть!
 

Мульт супер. Весело, красиво. Авторы превзошли себя. Намного лучше первой. Смотрел 2 раза.
 

Страница 2 из 2

Пред.  1, 2