Торренты   
 
 


Человек из стали / Man of Steel (Зак Снайдер) [2013 г., Anamorph OverUnder]

Рейтинг 3D:
211 голосов
6.4
Рейтинг фильма:
214 голосов
7.2
 
Вы должны быть авторизированы,
чтобы ставить оценки



Человек из стали / Man of Steel
Год выпуска: 2013
Страна: США, Канада, Великобритания
Жанр: фантастика, фэнтези, боевик, приключения
Продолжительность: 02:23:03
Перевод: Профессиональный (полное дублирование)
Режиссер: Зак Снайдер
В ролях: Генри Кавилл, Эми Адамс, Майкл Шеннон, Рассел Кроу, Дайан Лэйн, Кевин Костнер, Антье Трауэ, Лоренс Фишбёрн, Кристофер Мелони, Гарри Дж. Ленникс
Описание: Кларк Кент/Кал-Эл — молодой человек, который чувствует себя чужаком из-за своей невероятной силы. Много лет назад он был отправлен на Землю с развитой планеты Криптон, и теперь задается вопросом: зачем?
Воспитанный приемными родителями Мартой и Джонатаном Кентами, Кларк знает: обладать сверхспособностями — значит принимать сложные решения. Но когда человечество более всего нуждается в стабильности, оно подвергается нападению. Сможет ли герой восстановить мир, или воспользуется своей силой для того, чтобы окончательно его разрушить?
Качество: BDrip
Контейнер: MKV
Формат 3D: Anamorph OverUnder / Вертикальная анаморфная стереопара
Видео кодек: x264
Аудио кодек: AC-3
Видео: AVC, High@L4.1, 1920х1080, 23,976 кадра/сек, 16,2 Мбит/сек
Аудио:
#1 - Русский / AC3 / 48 KHz / 5.1 ch / 640 Кбит/сек (DUB CEE)
#2 - Английский / AC3 / 48 KHz / 5.1 ch / 640 Кбит/сек (Original)
Субтитры: русские (форсированные, полные)

Скриншоты

Media Info

Общее
Уникальный идентификатор : 240897395367718655465003308622946913325 (0xB53B269600AA68AE98F60A095D764C2D)
Полное имя : ManOfSteel.3D.2013.BD3DRip.Half.OU.x264.AC3.3D-RuGroup.mkv
Формат : Matroska
Версия формата : Version 4 / Version 2
Размер файла : 17,9 Гбайт
Продолжительность : 2 ч. 23 м.
Общий поток : 17,9 Мбит/сек
Название фильма : Man of Steel 3D (2013) release 3D-RuGroup
Дата кодирования : UTC 2013-10-19 15:20:59
Программа кодирования : mkvmerge v6.3.0 ('You can't stop me!') built on Jul 19 2013 16:27:38
Библиотека кодирования : libebml v1.3.0 + libmatroska v1.4.1
Видео
Идентификатор : 1
Формат : AVC
Формат/Информация : Advanced Video Codec
Профиль формата : High@L4.1
Параметр CABAC формата : Да
Параметр ReFrames формата : 4 кадра
Идентификатор кодека : V_MPEG4/ISO/AVC
Продолжительность : 2 ч. 23 м.
Битрейт : 16,2 Мбит/сек
Ширина : 1920 пикселей
Высота : 1080 пикселей
Соотношение сторон : 16:9
Режим частоты кадров : Постоянный
Частота кадров : 23,976 кадра/сек
Цветовое пространство : YUV
Субдискретизация насыщенности : 4:2:0
Битовая глубина : 8 бит
Тип развёртки : Прогрессивная
Бит/(Пиксели*Кадры) : 0.327
Размер потока : 16,2 Гбайт (91%)
Заголовок : rip by itsamna aka StarStranger
Библиотека кодирования : x264 core 130 r2273 b3065e6
Настройки программы : cabac=1 / ref=4 / deblock=1:-3:-3 / analyse=0x3:0x133 / me=umh / subme=10 / psy=1 / psy_rd=1.05:0.15 / mixed_ref=1 / me_range=32 / chroma_me=1 / trellis=2 / 8x8dct=1 / cqm=0 / deadzone=21,11 / fast_pskip=0 / chroma_qp_offset=-3 / threads=12 / lookahead_threads=2 / sliced_threads=0 / nr=0 / decimate=1 / interlaced=0 / bluray_compat=0 / constrained_intra=0 / bframes=8 / b_pyramid=2 / b_adapt=2 / b_bias=0 / direct=3 / weightb=1 / open_gop=0 / weightp=2 / keyint=250 / keyint_min=23 / scenecut=40 / intra_refresh=0 / rc_lookahead=60 / rc=crf / mbtree=1 / crf=17.0 / qcomp=0.60 / qpmin=0 / qpmax=69 / qpstep=4 / vbv_maxrate=50000 / vbv_bufsize=62500 / crf_max=0.0 / nal_hrd=none / ip_ratio=1.40 / aq=1:0.90
Default : Да
Forced : Нет
Аудио #1
Идентификатор : 2
Формат : AC-3
Формат/Информация : Audio Coding 3
Расширение режима : CM (complete main)
Параметр Endianness формата : Big
Идентификатор кодека : A_AC3
Продолжительность : 2 ч. 23 м.
Вид битрейта : Постоянный
Битрейт : 640 Кбит/сек
Каналы : 6 каналов
Расположение каналов : Front: L C R, Side: L R, LFE
Частота : 48,0 КГц
Битовая глубина : 16 бит
Метод сжатия : С потерями
Размер потока : 655 Мбайт (4%)
Язык : Russian
Default : Нет
Forced : Нет
Аудио #2
Идентификатор : 3
Формат : AC-3
Формат/Информация : Audio Coding 3
Расширение режима : CM (complete main)
Параметр Endianness формата : Big
Идентификатор кодека : A_AC3
Продолжительность : 2 ч. 23 м.
Вид битрейта : Постоянный
Битрейт : 640 Кбит/сек
Каналы : 6 каналов
Расположение каналов : Front: L C R, Side: L R, LFE
Частота : 48,0 КГц
Битовая глубина : 16 бит
Метод сжатия : С потерями
Размер потока : 655 Мбайт (4%)
Default : Нет
Forced : Нет
Текст #1
Идентификатор : 4
Формат : UTF-8
Идентификатор кодека : S_TEXT/UTF8
Идентификатор кодека/Информация : UTF-8 Plain Text
Заголовок : forced
Язык : Russian
Default : Да
Forced : Нет
Текст #2
Идентификатор : 5
Формат : UTF-8
Идентификатор кодека : S_TEXT/UTF8
Идентификатор кодека/Информация : UTF-8 Plain Text
Заголовок : full
Язык : Russian
Default : Нет
Forced : Нет
Меню
00:00:00.000 : en:00:00:00.000
00:11:16.967 : en:00:11:16.967
00:20:01.450 : en:00:20:01.450
00:30:09.474 : en:00:30:09.474
00:39:21.609 : en:00:39:21.609
00:48:57.643 : en:00:48:57.643
00:59:03.414 : en:00:59:03.414
01:08:57.883 : en:01:08:57.883
01:17:35.108 : en:01:17:35.108
01:28:36.185 : en:01:28:36.185
01:40:47.791 : en:01:40:47.791
01:50:55.857 : en:01:50:55.857
02:00:53.579 : en:02:00:53.579
02:10:13.555 : en:02:10:13.555
02:12:49.920 : en:02:12:49.920
02:23:02.365 : en:02:23:02.365
--Релиз группы:

Проверено на встроенном плейере ТВ LG 42LW4500
--
Остальные раздачи этого фильма (3)
Благодарности релизеру (79)

Торрент:

Статус:

Размер:

Зарегистрирован   [ 2013-10-19 19:53 ]

проверено

17.86 GB

 
 Мнение о фильме (67)

Пред.  1, 2, 3, 4  След.






Делаем раз

Делаем два

Это для лыж,Daum PotPlayer
 

Фильм для подросков , немного затянут . 3Д нормальное ,звук отличный.Смотреть можно всем.
 

Фильм для подросков
вот это точно, я бы даже добавил для американских подростков... немножко разочаровало это.
а вот начало очень даже не плохое (имею ввиду историю Криптона)
 

Фильм не понравился. И 3D слабенькое, и сюжет так себе.
 

3D - слабоватое на ТВ. фильм не очень, не могу отделаться от ассоциаций с "Тор" и прочими единоличными богами.... фильм на любителя в общем, детский комикс - однозначно нет.
 

Отличная фантастика,мне понравился фильм.Спасибо.
 

нормуль.и фильм и 3d
 

не являюсь поклонником "супермена".о фильме ну все ляпы про плащ(когда он развивается в космосе) пропущу.первый фильм про супермена,где его не показами хитрым очкастым дебилом(+)хорошие спецэфекты(+)как всегда ,хороший кастинг(+).не сопоставимая физическая сила главгероев(после метания тепловоза,засранец колотит людей и они получают сильную контузию и остаются живы)(-).самое главное не убедительное 3Д (вылетов не заметил,глубина плохая).фильм без наказано можно смотреть без очков.смотрел на 42 дюймовке LG.раздача качественная,раздающему спасибо.
 

Фильм отличный, думаю, что любители комиксов оценят в полной мере - спецэффектов в избытке, 3D среднее.
 

Номинант на мой приз самый тупой фильм года!
 

Фильм отличный, не знаю даже, почему так многие не довольны. Звук вообще шикарный, смотрел с прикрученным дублированным DTS-HD MA. C 3D странно получилось, ближние сцены (т.е. лица крупным планом) с очень хорошей глубиной, а все остальное обычная конвертация.
 

Мне фильм понравился, подан как добротная фантастика!!! не то что все остальные фильмы про супергероев, но скорее всего вторая часть перерастет в такой же!!!
 

Фильм на твердую четверку, если убрать пару-тройку довольно нелепых моментов то было было совсем хорошо. 3D неоднозначное, как будто создатели фильма снимали не задумывась он нем, глубина есть и т.п., но особого восторга по сравнению с обычной версией я не испытал.
 

Фильм супер. С наворотами постарались во всю. Советую посмотреть всем!!!!!!!!!!!!
 

Фильм на уровне для тех кто поклонник даного жанра . 3D могло быть и получше .
 

3в слабое в фильме
 

фильм говно редкостное. спецэфекты крутые 3D минимальное с середины смотрел без очков, очередной амерский говно комикс про спасение мира (всех затягтвает в черную дыру а бабу выкидывает наружу, бред в концовке)
 

Фильм хороший,(так как я фанат фантастики то ниже никак оценку не поставлю),но не совсем то чего хотелось. Что про 3D ,то слабо,глубина минимальная,а про вылеты вообще молчу,как говорилось выше лучше смотреть в 2D и не париться.
 

Сам по себе фильм отличный. Мне очень понравился. Но вот на счет 3D.. отстой полный. 3d эффект иногда присутствует, но на столько незаметно. Ощущение, что смотришь просто HD, только очки мешают )).
 

3D и различные эффекты на высоте, а вот сюжетец действительно можно было и по динамичней!
 

Страница 2 из 4

Пред.  1, 2, 3, 4  След.