Торренты   
 
 

 

Призрачный патруль / R.I.P.D. (Роберт Швентке) [2013 г., Anamorph OverUnder]

Рейтинг 3D:
266 голосов
8.1
Рейтинг фильма:
272 голосов
7.6
 
Вы должны быть авторизированы,
чтобы ставить оценки



Призрачный патруль / R.I.P.D.
Год выпуска: 2013
Страна: США
Жанр: фэнтези, боевик, комедия, криминал
Продолжительность: 01:35:54
Перевод: Профессиональный (полное дублирование) Лицензия
Режиссер: Роберт Швентке
В ролях: Джефф Бриджес, Райан Рейнольдс, Кевин Бейкон, Мэри-Луиз Паркер, Стефани Зостак, Джеймс Хонг, Мариса Миллер, Роберт Неппер, Майк О’Мэлли, Девин Рэтрей
Описание: Детективы из загробного департамента расследуют преступления по ту сторону могилы и гоняются за не в меру ретивой нечистью. Молодой коп, после гибели от руки неизвестного злоумышленника угодивший в мир иной, в обмен на помощь при расследовании собственного убийства обязуется следующие сто лет посвятить службе в R.I.P.D. и, получив в напарники брутального стрелка эпохи вестернов, выходит на борьбу с неупокоившимся злом.
Качество: BDrip
Контейнер: MKV
Формат 3D: Anamorph OverUnder / Вертикальная анаморфная стереопара
Видео кодек: x264
Аудио кодек: AC-3
Видео: AVC, High@L4.1, 1920х1080, 23,976 кадра/сек, 7856 Кбит/сек
Аудио:
#1 - Русский / AC3 / 48 KHz / 5.1 ch / 640 Кбит/сек (DUB)
#2 - Английский / AC3 / 48 KHz / 5.1 ch / 640 Кбит/сек (Original)
Субтитры:
#1 - Русские Форсированные (включены по умолчанию)
#2 - Русские Полные
#3 - Украинские Форсированные (made by Ash61)
#4 - Украинские Полные
#5 - English Full
#6 - English SDH
#7 - English SDH-Color

Скриншоты

Media Info

Общее
Уникальный идентификатор : 192520251763175401521199367553437711861 (0x90D60D4144B688EEACEB1B427488BDF5)
Полное имя : H:\Source\R.I.P.D.3D.2013.BD3DRip.Half.OU.x264.AC3.3D-RuGroup.mkv
Формат : Matroska
Версия формата : Version 4 / Version 2
Размер файла : 6,24 Гбайт
Продолжительность : 1 ч. 35 м.
Общий поток : 9318 Кбит/сек
Название фильма : R.I.P.D. 3D (2013) release 3D-RuGroup
Дата кодирования : UTC 2013-11-08 14:09:40
Программа кодирования : mkvmerge v6.3.0 ('You can't stop me!') built on Jul 19 2013 16:27:38
Библиотека кодирования : libebml v1.3.0 + libmatroska v1.4.1
Видео
Идентификатор : 1
Формат : AVC
Формат/Информация : Advanced Video Codec
Профиль формата : High@L4.1
Параметр CABAC формата : Да
Параметр ReFrames формата : 4 кадра
Идентификатор кодека : V_MPEG4/ISO/AVC
Продолжительность : 1 ч. 35 м.
Битрейт : 7853 Кбит/сек
Ширина : 1920 пикселей
Высота : 1080 пикселей
Соотношение сторон : 16:9
Режим частоты кадров : Постоянный
Частота кадров : 23,976 кадра/сек
Цветовое пространство : YUV
Субдискретизация насыщенности : 4:2:0
Битовая глубина : 8 бит
Тип развёртки : Прогрессивная
Бит/(Пиксели*Кадры) : 0.158
Размер потока : 5,26 Гбайт (84%)
Заголовок : rip by itsamna aka StarStranger
Библиотека кодирования : x264 core 130 r2273 b3065e6
Настройки программы : cabac=1 / ref=4 / deblock=1:-3:-3 / analyse=0x3:0x133 / me=umh / subme=10 / psy=1 / psy_rd=1.00:0.15 / mixed_ref=1 / me_range=32 / chroma_me=1 / trellis=2 / 8x8dct=1 / cqm=0 / deadzone=21,11 / fast_pskip=0 / chroma_qp_offset=-3 / threads=12 / lookahead_threads=2 / sliced_threads=0 / nr=0 / decimate=1 / interlaced=0 / bluray_compat=0 / constrained_intra=0 / bframes=8 / b_pyramid=2 / b_adapt=2 / b_bias=0 / direct=3 / weightb=1 / open_gop=0 / weightp=2 / keyint=250 / keyint_min=23 / scenecut=40 / intra_refresh=0 / rc_lookahead=60 / rc=crf / mbtree=1 / crf=16.5 / qcomp=0.60 / qpmin=0 / qpmax=69 / qpstep=4 / vbv_maxrate=50000 / vbv_bufsize=62500 / crf_max=0.0 / nal_hrd=none / ip_ratio=1.40 / aq=1:0.90
Default : Да
Forced : Нет
Аудио #1
Идентификатор : 2
Формат : AC-3
Формат/Информация : Audio Coding 3
Расширение режима : CM (complete main)
Параметр Endianness формата : Big
Идентификатор кодека : A_AC3
Продолжительность : 1 ч. 35 м.
Вид битрейта : Постоянный
Битрейт : 640 Кбит/сек
Каналы : 6 каналов
Расположение каналов : Front: L C R, Side: L R, LFE
Частота : 48,0 КГц
Битовая глубина : 16 бит
Метод сжатия : С потерями
Размер потока : 439 Мбайт (7%)
Заголовок : Дубляж - BD CEE
Язык : Russian
Default : Да
Forced : Нет
Аудио #2
Идентификатор : 3
Формат : AC-3
Формат/Информация : Audio Coding 3
Расширение режима : CM (complete main)
Параметр Endianness формата : Big
Идентификатор кодека : A_AC3
Продолжительность : 1 ч. 35 м.
Вид битрейта : Постоянный
Битрейт : 640 Кбит/сек
Каналы : 6 каналов
Расположение каналов : Front: L C R, Side: L R, LFE
Частота : 48,0 КГц
Битовая глубина : 16 бит
Метод сжатия : С потерями
Размер потока : 439 Мбайт (7%)
Заголовок : Original
Язык : English
Default : Нет
Forced : Нет
Текст #1
Идентификатор : 4
Формат : UTF-8
Идентификатор кодека : S_TEXT/UTF8
Идентификатор кодека/Информация : UTF-8 Plain Text
Заголовок : Форсированные
Язык : Russian
Default : Да
Forced : Нет
Текст #2
Идентификатор : 5
Формат : UTF-8
Идентификатор кодека : S_TEXT/UTF8
Идентификатор кодека/Информация : UTF-8 Plain Text
Заголовок : full
Язык : Russian
Default : Нет
Forced : Нет
Текст #3
Идентификатор : 6
Формат : UTF-8
Идентификатор кодека : S_TEXT/UTF8
Идентификатор кодека/Информация : UTF-8 Plain Text
Заголовок : Форсированные
Язык : Ukrainian
Default : Нет
Forced : Нет
Текст #4
Идентификатор : 7
Формат : UTF-8
Идентификатор кодека : S_TEXT/UTF8
Идентификатор кодека/Информация : UTF-8 Plain Text
Заголовок : full
Язык : Ukrainian
Default : Нет
Forced : Нет
Текст #5
Идентификатор : 8
Формат : UTF-8
Идентификатор кодека : S_TEXT/UTF8
Идентификатор кодека/Информация : UTF-8 Plain Text
Заголовок : full
Язык : English
Default : Нет
Forced : Нет
Текст #6
Идентификатор : 9
Формат : UTF-8
Идентификатор кодека : S_TEXT/UTF8
Идентификатор кодека/Информация : UTF-8 Plain Text
Заголовок : SDH
Язык : English
Default : Нет
Forced : Нет
Текст #7
Идентификатор : 10
Формат : UTF-8
Идентификатор кодека : S_TEXT/UTF8
Идентификатор кодека/Информация : UTF-8 Plain Text
Заголовок : SDH-Color
Default : Нет
Forced : Нет
Меню
00:00:00.000 : :1
00:03:56.111 : :2
00:09:12.135 : :3
00:14:29.577 : :4
00:17:57.410 : :5
00:22:29.598 : :6
00:27:08.502 : :7
00:33:32.510 : :8
00:38:45.156 : :9
00:43:26.646 : :10
00:46:30.746 : :11
00:52:03.037 : :12
00:55:51.098 : :13
01:02:14.981 : :14
01:07:00.099 : :15
01:10:34.689 : :16
01:13:15.308 : :17
01:17:51.125 : :18
01:22:59.933 : :19
01:27:26.908 : :20
--Релиз группы:

Проверено на встроенном плейере ТВ LG 42LW4500
--08.11.2013 - Релиз обновлён - добавлена русская дублированная дорожка и пакет субтитров.
Желающие, скачайте заново торрент-файл.
Остальные раздачи этого фильма (3)
Благодарности релизеру (79)

Торрент:

Статус:

Размер:

Зарегистрирован   [ 2013-11-08 18:37 ]

проверено

6.24 GB

 
 Мнение о фильме (89)

Пред.  1, 2, 3, 4, 5  След.






фильм достойный просмотра 3д тоже -просмотренно на LG 47 LM860V
 

Добротная чёрная комедия с хорошим 3D и звуком. Спасибо релизеру за раздачу)
 

фильм хороший с юморком
 

фильм прикольный, спец эффекты средне, но всё равно понравилось, посмотрю ещё раз, с друзьями!!!
 

Не плохо, 3D хорошее, вылеты есть, сам фильм - это отличное времяпровождение выходного вечера, релизеру спасибо за работу
 

не впечатлил.... как-то поверхностно
 

Спс за релиз :) 3D качественное и со звуком всё кул. Норм Фильм на подобие "Люди в черном" . ;)
 

Слишком похоже на "Люди в черном", поэтому вторично. Сюжет и монстры не порадовали. Хорош только Джеф Бриджес и тот переигрывает. Отмечу 3D-эффекты, они не напрягали и выглядели естественно. Смотрел на проекторе с помощью nVidia 3D.
 

3-D эффекты и вообще компьютерная графика впоряде, без них фильм был бы скучноват
 

развлекательное кино в духе "Люди в черном", 3D и звук на высоте
 

Хороший фильм
 

Очень похож на " Люди в чёрном". А 3D и правда отличное.
 

Хороший фильм для любителей фантастики.3Д неплохое,
 

что о среднее между - люди в чёрном- и - привидение, но фильм очень неплох
 

Мне фильм понравился,динамичный,яркий всем советую)
 

Мне понравилось! Хороший атракцион ))
 

Фильм смотрится легко, есть моменты с юмором, 3D конечно не бомба, но присутствует. Вообщем фильм стоит посмотреть
 

Фильм скучный, вторую половину смотрел на перемотке.
ЗD хорошее.
 

для экшна -сюжет местами скучноват, много трепа. и уж не знаю как в оригинале, а в русском переводе ,как для комедии, недостаточно качественного юмора. фильм на разик.
 

Хороший фильм для семейного просмотра.
 

Страница 2 из 5

Пред.  1, 2, 3, 4, 5  След.