Торренты   
 
 

 

Гадкий я 2 в 3Д / Despicable Me 2 3D (Пьер Соффин, Крис Ре / Pierre Coffin, Chris) [2013, мультфильм, фантастика, комедия, криминал, приключ, BDrip, 1080p]Full OverUnder / Вертикальная стереопара

Рейтинг 3D:
205 голосов
8.4
Рейтинг фильма:
201 голосов
8.3
 
Вы должны быть авторизированы,
чтобы ставить оценки


Гадкий я 2 / Despicable Me 2
Год выпуска: 2013
Страна: США
Студия: Illumination Entertainment , Universal Pictures
Жанр: Мультфильм, Фантастика, Комедия, Приключения, Семейный
Продолжительность: 01:38:04
Перевод: Профессиональный (дублированный)
Русские субтитры: нет
Режиссер на русском: Пьер Соффин, Крис Рено
Режиссер на английском: Pierre Coffin, Chris Renaud
В ролях: Стив Карелл, Кристен Уиг, Бенджамин Брэтт, Миранда Косгров, Расселл Брэнд, Кен Жонг, Стив Куган, Элси Фишер, Дэна Гайер, Мойзес Ариас
Описание: В то время как Грю, бывший суперзлодей, приспосабливается к семейной жизни и пытается честным трудом зарабатывать в сфере бизнеса, тайные лаборатории Арктики оказываются украденными. Анти-Злодейская лига решает, что она нуждается в помощи Грю и его новобранцев в расследовании.
Сэмпл: http://www.sendspace.com/file/4zu6m2
Качество: BDrip
Контейнер: MKV
Формат 3D: OverUnder / Вертикальная стереопара
Порядок ракурсов: левый ракурс первый
Видео кодек: x264
Аудио кодек: DTS
Видео: AVC / High@L5.0 / 23,976 fps / 1920х2080 / 15,2 Мбит/сек
Аудио: Русский / DTS / 48 KHz / 5.1 ch / 755 Кбит/сек
Аудио 2: Английский / AC3 / 48 KHz / 5.1 ch / 640 Кбит/сек
Релиз группы: ВНИМАНИЕ ! На встроенных ТВ-плеерах работать не будет!!!
Железные плееры на которых воспроизводятся полные стереопары:Popcorn C-200 , Dune HD Smart D1 , Dune HD DUO , Dune HD Smart H1 , Dune HD Smart B1 , Dune HD Max , Dune HD TV-303D , Dune HD Base 3D , Dune HD TV-301

MediaInfo

Общее
Уникальный идентификатор : 222469750022622893643577163876311503573 (0xA75E1D8631B825C8B0B23C06730812D5)
Полное имя : E:\закачки\Dеspiсаblе Me 2.Rip by SeRoGa00.mkv
Формат : Matroska
Версия формата : Version 2
Размер файла : 11,6 Гбайт
Продолжительность : 1 ч. 38 м.
Общий поток : 17,0 Мбит/сек
Дата кодирования : UTC 2013-10-22 10:03:26
Программа кодирования : mkvmerge v3.4.0 ('Rapunzel') сборка от May 15 2010 09:38:20
Библиотека кодирования : libebml v0.8.0 + libmatroska v0.9.0
Видео
Идентификатор : 1
Формат : AVC
Формат/Информация : Advanced Video Codec
Профиль формата : High@L5.0
Параметр CABAC формата : Да
Параметр ReFrames формата : 4 кадра
Идентификатор кодека : V_MPEG4/ISO/AVC
Продолжительность : 1 ч. 38 м.
Битрейт : 15,2 Мбит/сек
Ширина : 1920 пикселей
Высота : 2080 пикселей
Соотношение сторон : 0,923
Частота кадров : 23,976 кадра/сек
Цветовое пространство : YUV
Субдискретизация насыщенности : 4:2:0
Битовая глубина : 8 бит
Тип развёртки : Прогрессивная
Бит/(Пиксели*Кадры) : 0.159
Размер потока : 10,4 Гбайт (90%)
Заголовок : Rip by SeRoGa00
Библиотека кодирования : x264 core 138 r2356 a1d3d17
Настройки программы : cabac=1 / ref=4 / deblock=1:-3:-3 / analyse=0x3:0x113 / me=umh / subme=9 / psy=1 / psy_rd=1.00:0.15 / mixed_ref=1 / me_range=24 / chroma_me=1 / trellis=2 / 8x8dct=1 / cqm=0 / deadzone=21,11 / fast_pskip=1 / chroma_qp_offset=-3 / threads=9 / lookahead_threads=1 / sliced_threads=0 / nr=0 / decimate=1 / interlaced=0 / bluray_compat=0 / constrained_intra=0 / bframes=8 / b_pyramid=2 / b_adapt=2 / b_bias=0 / direct=3 / weightb=1 / open_gop=0 / weightp=2 / keyint=250 / keyint_min=23 / scenecut=40 / intra_refresh=0 / rc_lookahead=60 / rc=crf / mbtree=1 / crf=18.0 / qcomp=0.60 / qpmin=10 / qpmax=69 / qpstep=4 / vbv_maxrate=40000 / vbv_bufsize=40000 / crf_max=0.0 / nal_hrd=none / ip_ratio=1.40 / aq=1:1.00
Язык : English
Аудио #1
Идентификатор : 2
Формат : DTS
Формат/Информация : Digital Theater Systems
Идентификатор кодека : A_DTS
Продолжительность : 1 ч. 38 м.
Вид битрейта : Постоянный
Битрейт : 755 Кбит/сек
Каналы : 6 каналов
Расположение каналов : Front: L C R, Side: L R, LFE
Частота : 48,0 КГц
Битовая глубина : 24 бит
Метод сжатия : С потерями
Размер потока : 529 Мбайт (4%)
Язык : Russian
Аудио #2
Идентификатор : 3
Формат : AC-3
Формат/Информация : Audio Coding 3
Расширение режима : CM (complete main)
Идентификатор кодека : A_AC3
Продолжительность : 1 ч. 38 м.
Вид битрейта : Постоянный
Битрейт : 640 Кбит/сек
Каналы : 6 каналов
Расположение каналов : Front: L C R, Side: L R, LFE
Частота : 48,0 КГц
Битовая глубина : 16 бит
Метод сжатия : С потерями
Размер потока : 449 Мбайт (4%)
Язык : English

Скриншоты


Остальные раздачи этого фильма (2)
Благодарности релизеру (25)

Торрент:

Статус:

Размер:

Зарегистрирован   [ 2013-10-22 14:56 ]

проверено

11.62 GB

 
 Мнение о фильме (55)

1, 2, 3  След.






мульт супер, 3Дсупер.
 

3D неплохое, краски яркие, но сюжет СИЛЬНО проигрывает первой части, если бы не миньоны, то никакого удовольствия.
 

Спасибо сегодня заценил уже 2 раза, супер мульт, а в конце после титров нехилые такие вылеты с участием миньонов!
 

Как мультфильм- весьма недурно, посмеялся вдоволь. 3D хорошее, особенно периодически высовывающийся нос Грю и концовка с титрами.
 

И 3D и сюжет отличные! Рекомендую к просмотру!
 

мульт - не плохой, но не такой хороший, как первая часть
 

Смотрел с сыном , хорошо посмеялись . Он говорит что даже смешней первой части , а как по мне так обе достойны внимания , разве что в первой Вектор был обаятельней и придурашней эль Мачо , но это мелочи.
 

Хороший мультик спасибо!!!
 

Мульт классный , но при всё при этом слабое 3D если что и было то только в финальных титрах .
особенно порадовали мыльные пузыри
 

Мульт классный , но при всё при этом слабое 3D если что и было то только в финальных титрах .
Уважаемый, для Вас 3Д это только вылеты? Тут шикарная глубина и обьем. И вылеты есть и выскоки и выдвиги))
 

Мультфильм учень понравился) Надеюсь будет 3 часть)) Вторая часть логически завершилась созданием семьей, и на сцену вышло новое агентство))) Надеюсь что 3 часть будет и там будет противостояние добра и зла в маштабах Земли))
 

Я сам еще не смотрел, но дети просто обалдели!!!
 

дети в восторге, требуют по второму кругу, да и мне понравилось
 

Самый смешной и интересный мульт этого года! Ничуть не хуже первой части. 3D отличное.
 

Мульт понравился, дочь в восторге!
 

Мультфильм отличный, очень позитивный, вся семья в восторге! Ничем не хуже первой части.
3D-эффект качественный.
 

правильно тут писали, 3Д зачётное, нарисовано все шикарно
но сюжет и прочее явно хуже первой части, даже миньоны выглядят не так ярко, как в первой части
наверное все приколы с ними оставили для полноценного фильма
 

Качество картинки отличное, мультик так себе. Серега, спасибо за релиз.
 

Мульт понравился.
 

На вкус, не всем понравится
 

Страница 1 из 3

1, 2, 3  След.